<?xml version="1.0" standalone="no"?>
<!DOCTYPE svg PUBLIC "-//W3C//DTD SVG 1.1//EN" "http://www.w3.org/Graphics/SVG/1.1/DTD/svg11.dtd" >
<svg xmlns="http://www.w3.org/2000/svg">
<metadata></metadata>
<defs>
<font id="happy_sansregular" horiz-adv-x="1014" >
<font-face units-per-em="2048" ascent="1638" descent="-410" />
<missing-glyph horiz-adv-x="508" />
<glyph horiz-adv-x="2048" />
<glyph horiz-adv-x="2048" />
<glyph unicode="&#xd;" horiz-adv-x="508" />
<glyph unicode=" "  horiz-adv-x="508" />
<glyph unicode="&#x09;" horiz-adv-x="508" />
<glyph unicode="&#xa0;" horiz-adv-x="508" />
<glyph unicode="!" horiz-adv-x="528" d="M68 98q0 62 44 106.5t106 44.5q63 0 107 -44.5t44 -106.5t-44 -106.5t-107 -44.5q-62 0 -106 44.5t-44 106.5zM90 354q96 530 96 1086v44l270 -25q-98 -392 -98 -956q0 -85 2 -174z" />
<glyph unicode="&#x22;" horiz-adv-x="672" d="M75 1334q0 44 31 74.5t75 30.5t74.5 -30.5t30.5 -74.5t-30.5 -95t-105.5 -235q-13 184 -44 235t-31 95zM361 1282q0 44 31 74.5t75 30.5t74.5 -30.5t30.5 -74.5t-30.5 -100t-107.5 -225q-11 169 -42 225t-31 100z" />
<glyph unicode="#" horiz-adv-x="1274" d="M-98 581l336 -3l85 231l-304 8l76 149l285 -3l174 471l208 -23l-185 -450l308 -3l167 407l171 45l-167 -453l165 -2v-171l-227 6l-80 -219l252 -2l47 -152l-361 -14l-193 -522l-208 23l202 492l-314 -12l-178 -434l-171 -45l174 472l-215 -8zM419 576l307 -3l92 222 l-306 8z" />
<glyph unicode="$" horiz-adv-x="919" d="M55 1145q0 53 19 107q48 143 219 207l-43 217l157 2l28 -190h5q142 1 247 -111l-79 -238q-79 102 -142 147l44 -301q30 -8 62 -14q273 -75 323 -264q7 -25 10 -50q2 -28 2 -53q0 -187 -136 -283q-72 -52 -150 -73h-1l26 -170l-71 -44l-40 200q-11 -1 -22 -1q-38 0 -77 7 q-236 14 -281 351l200 116q3 -77 18 -131q32 -121 122 -138l-80 402q-229 38 -303 130q-33 49 -47 100q-10 37 -10 75zM243 1195q0 -9 3 -17q23 -85 130 -141l-54 277q-49 -22 -74 -95q-5 -12 -5 -24zM537 806l53 -356q59 33 75 140q2 15 2 29q0 22 -5 41q-27 101 -125 146z " />
<glyph unicode="%" horiz-adv-x="1130" d="M-18 8l925 1439l144 -7l-998 -1454zM18 699q0 41 8 82q17 93 68.5 172t125.5 113q55 26 108 26q18 0 36 -3q68 -11 125 -69t79 -149q12 -52 12 -104q0 -40 -7 -81q-17 -92 -68 -170t-125 -114q-54 -26 -108 -26q-18 0 -36 2q-72 12 -128.5 70.5t-77.5 149.5 q-12 50 -12 101zM154 792q0 -18 4 -38q8 -56 36 -105t70 -75q38 -24 76 -24h6q42 2 76 32t48 82q8 34 8 68q0 20 -2 40q-8 55 -37 105t-71 75q-38 24 -75 24q-3 0 -7 -1q-40 -2 -74 -31.5t-48 -81.5q-10 -34 -10 -70zM278 327q0 41 8 82q17 93 68.5 172t125.5 113 q55 26 108 26q18 0 36 -3q68 -11 125 -69t79 -149q12 -52 12 -104q0 -40 -7 -81q-17 -92 -68 -170t-125 -114q-54 -26 -108 -26q-18 0 -36 2q-72 12 -128.5 70.5t-77.5 149.5q-12 50 -12 101zM414 420q0 -18 4 -38q8 -56 36 -105t70 -75q38 -24 76 -24h6q42 2 76 32t48 82 q8 34 8 68q0 20 -2 40q-8 55 -37 105t-71 75q-38 24 -75 24q-3 0 -7 -1q-40 -2 -74 -31.5t-48 -81.5q-10 -34 -10 -70z" />
<glyph unicode="&#x26;" horiz-adv-x="1319" d="M28 441q0 57 24 116q70 169 233 361q-32 38 -66 74q-79 136 -79 236q0 87 59 149q63 67 134 67q69 0 145 -64q88 -74 88 -167q0 -70 -49 -151q-42 -68 -83 -134q111 -133 297 -342q15 42 15 91q0 97 -58 222l222 84q25 -230 25 -335q0 -152 -35 -249q114 -127 300 -320 q-163 -38 -260 -170q-83 168 -171 322q-118 -89 -293 -115q-44 -6 -84 -6q-175 0 -280 125q-84 100 -84 206zM242 566q0 -74 68 -132q56 -48 126 -48q86 0 193 74q-126 193 -263 361q-37 -58 -73 -113q-51 -77 -51 -142zM256 1211q0 -31 16 -68q13 -31 89 -126 q67 104 67 183q0 17 -3 33q-17 86 -65 86q-20 0 -46 -15q-58 -35 -58 -93z" />
<glyph unicode="'" horiz-adv-x="346" d="M70 1302q0 11 2 22q8 43 44 69q27 19 58 19q10 0 20 -2q44 -8 69 -43q19 -27 19 -59q0 -10 -2 -20q-8 -43 -47 -88t-145 -213q10 88 10 147q0 63 -11 92q-17 41 -17 76z" />
<glyph unicode="(" horiz-adv-x="758" d="M146 601q2 277 130 530t299 442l239 -91q-356 -329 -458 -772l8 -210q67 -346 465 -765l-254 -105q-171 189 -299 441.5t-130 529.5z" />
<glyph unicode=")" horiz-adv-x="758" d="M-101 1407l291 166q171 -189 293.5 -442t124.5 -530q-2 -277 -124.5 -529.5t-293.5 -441.5l-261 90q385 374 461 757l-1 233q-83 511 -490 697z" />
<glyph unicode="*" horiz-adv-x="889" d="M106 919l256 204l-249 113l128 143l173 -158v241l181 -8l-60 -256l249 38l-15 -241l-226 83l127 -286l-181 -45l-59 293l-174 -279z" />
<glyph unicode="+" d="M60 572l38 234l324 -75l-45 347h256l-38 -332l317 38l7 -241l-331 37l15 -384l-218 -8l29 385z" />
<glyph unicode="," horiz-adv-x="482" d="M37 -287q124 157 124 226q0 27 -18 41q-67 48 -67 110t44 106.5t106 44.5q63 0 107 -44.5t44 -106.5t-52 -163t-288 -214z" />
<glyph unicode="-" horiz-adv-x="670" d="M91 431l1 169l451 11l9 -224z" />
<glyph unicode="." horiz-adv-x="460" d="M76 90q0 62 44 106.5t106 44.5q63 0 107 -44.5t44 -106.5t-44 -106.5t-107 -44.5q-62 0 -106 44.5t-44 106.5z" />
<glyph unicode="/" horiz-adv-x="723" d="M-10 -95l564 1529l208 -23l-601 -1461z" />
<glyph unicode="0" horiz-adv-x="1221" d="M53 630q0 82 15 164q34 186 137.5 344t251.5 227q109 51 214 51q36 0 72 -6q137 -23 251.5 -138t157.5 -298q24 -104 24 -208q0 -80 -14 -161q-34 -186 -136 -342t-249 -227q-109 -53 -216 -53q-37 0 -74 6q-142 24 -255.5 140.5t-154.5 297.5q-24 101 -24 203zM325 817 q0 -38 6 -77q16 -111 72 -209.5t140 -150.5q77 -48 152 -48q7 0 14 1q83 4 150.5 64t95.5 164q18 66 18 135q0 39 -6 79q-16 111 -73.5 211t-140.5 150q-77 47 -151 47q-7 0 -13 -1q-80 -4 -148.5 -63t-96.5 -163q-19 -68 -19 -139z" />
<glyph unicode="1" horiz-adv-x="716" d="M160 1196l179 130h309q-105 -632 -60 -1325q-186 49 -369 44q119 475 119 925q0 112 -6 228l-127 -137z" />
<glyph unicode="2" horiz-adv-x="1048" d="M-1 202q676 401 679 702q3 27 3 51q0 146 -115 197q-19 5 -37 5q-120 0 -205 -223q-89 158 -233 223q206 279 419 283t337.5 -111.5t147.5 -352.5q0 -305 -430 -637l504 -69q-33 -109 -67 -278q-509 158 -1003 210z" />
<glyph unicode="3" horiz-adv-x="1032" d="M-68 475l286 112q46 -301 234 -317q233 9 279 226v12q0 237 -392 397q170 180 263 376l-571 -159l82 250q321 27 762 113l7 -211l-219 -294q319 -119 332 -513q-61 -317 -219 -405q-121 -67 -293 -67q-54 0 -114 7q-301 55 -437 473z" />
<glyph unicode="4" horiz-adv-x="1017" d="M-39 446l649 992l154 -833l206 32l6 -242l-156 -27l82 -419l-314 -19v392l-582 -87zM291 518l279 34l-48 443z" />
<glyph unicode="5" horiz-adv-x="965" d="M-66 636l272 113v-21q0 -194 182 -251q146 0 200 79t54 210q-64 173 -203 177h-23q-128 0 -256 -40l92 551q67 -2 129 -2q333 0 542 54l-41 -247l-474 45l-81 -195q92 13 167 13q183 0 266 -79q117 -113 117 -289q0 -234 -143.5 -365t-324.5 -131q-152 0 -268.5 75.5 t-206.5 302.5z" />
<glyph unicode="6" d="M23 463q0 122 38 286q75 328 444 705l287 -166q-400 -135 -536 -520q164 158 324 158q99 0 196 -60q215 -194 215 -422q0 -109 -49 -225q-158 -257 -373 -264q-20 -1 -38 -1q-187 0 -286 68q-109 75 -184 237q-38 81 -38 204zM285 527q0 -131 81.5 -261.5t195.5 -130.5 q86 0 139 84.5t53 211.5q0 174 -85 285.5t-184 111.5q-77 0 -138.5 -87t-61.5 -214z" />
<glyph unicode="7" horiz-adv-x="942" d="M23 1161l113 294l754 -38l15 -151q-462 -483 -462 -1181q0 -53 3 -108l-332 144q83 633 452 1107z" />
<glyph unicode="8" horiz-adv-x="1055" d="M23 512q0 190 147 325q64 59 141 92q-13 10 -25 21q-83 76 -83 184t83 184t200 76t200 -76t83 -184t-83 -184l-2 -2q108 -32 195 -111q146 -135 146 -325q0 -191 -146.5 -325.5t-354.5 -134.5t-354.5 134.5t-146.5 325.5zM257 566q0 -60 36 -122q56 -95 164 -139 q63 -26 122 -26q43 0 84 14q97 32 126 122q10 31 10 62q0 61 -36 123q-56 95 -165 139q-63 25 -121 25q-43 0 -84 -13q-97 -32 -126 -122q-10 -31 -10 -63zM365 1133q0 -40 29 -66q29 -27 73 -27q8 0 15 1q55 5 98 44t49 89q1 7 1 14q0 40 -29 67t-74 27q-7 0 -14 -1 q-54 -6 -97 -44.5t-50 -88.5q-1 -7 -1 -15z" />
<glyph unicode="9" horiz-adv-x="972" d="M42 886q0 221 94 369q98 154 309 173q17 1 34 1q189 0 328 -194q126 -176 126 -446q0 -54 -5 -111q-30 -347 -566 -853l-248 257q384 136 595 490q-124 -134 -258 -134q-85 0 -174 55q-230 139 -234 373q-1 10 -1 20zM225 1054q0 -181 93.5 -297.5t200.5 -116.5 q85 0 152.5 90.5t67.5 223.5q0 136 -89.5 272t-215.5 136q-94 0 -151.5 -88t-57.5 -220z" />
<glyph unicode=":" horiz-adv-x="460" d="M76 90q0 62 44 106.5t106 44.5q63 0 107 -44.5t44 -106.5t-44 -106.5t-107 -44.5q-62 0 -106 44.5t-44 106.5zM76 873q0 62 44 106.5t106 44.5q63 0 107 -44.5t44 -106.5t-44 -106.5t-107 -44.5q-62 0 -106 44.5t-44 106.5z" />
<glyph unicode=";" horiz-adv-x="460" d="M37 -287q124 157 124 226q0 27 -18 41q-67 48 -67 110t44 106.5t106 44.5q63 0 107 -44.5t44 -106.5t-52 -163t-288 -214zM76 873q0 62 44 106.5t106 44.5q63 0 107 -44.5t44 -106.5t-44 -106.5t-107 -44.5q-62 0 -106 44.5t-44 106.5z" />
<glyph unicode="&#x3c;" d="M87 674v83l840 484l46 -250l-483 -276l437 -355l-75 -250z" />
<glyph unicode="=" d="M87 631l810 -15l30 -194l-810 -61zM87 754l53 204l787 -15v-235z" />
<glyph unicode="&#x3e;" d="M79 496l475 204l-467 374l98 235l742 -552v-83l-840 -548z" />
<glyph unicode="?" horiz-adv-x="904" d="M26 90q0 62 44 106.5t106 44.5q63 0 107 -44.5t44 -106.5t-44 -106.5t-107 -44.5q-62 0 -106 44.5t-44 106.5zM86 394l70 252q105 234 305 302t210 182q1 10 1 20q0 95 -86 115q-23 4 -46 4q-149 0 -285 -163q-1 249 -136 301q269 83 395 83q115 0 222 -68 q136 -75 163 -180q8 -36 8 -76q0 -80 -35 -181q-83 -165 -256.5 -199t-256.5 -252l-25 -200z" />
<glyph unicode="@" horiz-adv-x="1839" d="M24 523q0 242 124 464.5t345.5 342t456.5 119.5q362 0 609 -230t247 -566q-2 -195 -146 -386q-161 -139 -288 -139q-23 0 -45 5q-142 30 -223 30q-62 0 -113 -14q6 43 12 83q-155 -41 -250 -41q-39 0 -68 7q-122 28 -167 165q-12 36 -12 69q0 95 96 173q124 99 474 187v2 q1 8 1 15q0 112 -113 125q-10 1 -20 1q-111 0 -229 -137l-97 195q222 146 382 146q21 0 42 -2q182 -17 197 -272l-4 -632q252 64 314 177.5t70 324.5q-5 268 -202 436q-212 165 -495 165q-205 0 -347.5 -117.5t-224.5 -335.5q-67 -178 -67 -361q0 -253 118.5 -403.5 t241.5 -213t266 -62.5q184 0 492 214l120 -226q-263 -184 -571 -184q-240 0 -461 122.5t-343 317t-122 436.5zM728 440q0 -46 62 -71q24 -10 60 -10q76 0 204 44q20 176 32 300q-296 -130 -341 -209q-17 -30 -17 -54z" />
<glyph unicode="A" horiz-adv-x="1447" d="M75 211l730 1442l552 -1728h-302l-90 520l-453 60l-180 -415zM603 761l309 -68l-151 460z" />
<glyph unicode="B" horiz-adv-x="1146" d="M26 1331l776 -20q211 -61 211 -302q-15 -279 -271 -294h15q354 0 354 -368v-16q-22 -332 -377 -332h-15l-678 8q34 331 34 658q0 291 -49 666zM319 558l1 -355q535 0 558 195v3q0 156 -559 157zM327 798q416 65 416 218q0 8 -1 16q-17 112 -236 112q-77 0 -179 -14v-332z " />
<glyph unicode="C" horiz-adv-x="1115" d="M-2 756q1 315 152 491.5t408 184.5h17q291 0 530 -236q-158 -106 -203 -257q-134 267 -352 267q-271 -60 -286 -415q12 -125 114 -234q68 -74 166 -74q48 0 102 17q165 60 203 233l246 -256q-150 -226 -422 -294q-43 -5 -84 -5q-191 0 -351 115q-195 139 -240 463z" />
<glyph unicode="D" horiz-adv-x="1168" d="M-8 60q130 524 130 992q0 93 -16 207l633 -71q376 -56 376 -573q-113 -542 -686 -572zM332 281h26q421 0 479 346q4 33 4 64q0 314 -419 379z" />
<glyph unicode="E" horiz-adv-x="1100" d="M-2 1408q461 0 812 54l29 -241l-550 30l15 -264l241 23l31 -106l-257 -22l15 -362l721 18l-30 -271l-965 73q34 211 34 421q0 288 -96 647z" />
<glyph unicode="F" horiz-adv-x="919" d="M-15 -141q70 365 70 724q0 242 -70 580q43 -2 88 -2q338 0 771 100l30 -294l-588 15l8 -392l286 45l8 -150l-294 -1l16 -535z" />
<glyph unicode="G" horiz-adv-x="1191" d="M8 699q15 309 162 471t410 177q272 -8 543 -180q-173 -75 -219 -303q-168 237 -379 237q-165 -38 -220 -175q-40 -98 -40 -222q0 -50 6 -103q30 -173 112 -274q60 -74 196 -74q49 0 107 9q193 64 193 223q0 27 -5 56l-188 -106l-45 136q316 38 505 143 q-38 -460 -264 -633q-159 -71 -355 -82q-181 12 -338.5 156t-180.5 544z" />
<glyph unicode="H" horiz-adv-x="919" d="M60 354q38 333 38 645q0 169 -33 436l274 -11l-22 -294l241 -120l-38 437l229 7q12 -721 151 -1592l-290 -15l-60 974l-241 46l-23 -528z" />
<glyph unicode="I" horiz-adv-x="497" d="M75 49q56 467 56 750q0 235 -56 596q159 0 339 8q-83 -598 -83 -867q0 -250 54 -528q-147 41 -303 41h-7z" />
<glyph unicode="J" horiz-adv-x="746" d="M-67 369l256 106q65 -204 158 -204q9 0 18 2q55 35 55 130q0 59 -9 135q-31 266 -199 793l308 61q50 -467 151 -1046q6 -38 6 -72q0 -216 -277 -274q-26 -3 -51 -3q-272 0 -416 372z" />
<glyph unicode="K" horiz-adv-x="1115" d="M-8 1071l297 22l53 -393l398 709l291 -49q-184 -154 -393 -532q252 -508 460 -647l-378 -45l-203 434l-145 -306l15 -324l-319 30q77 228 77 479q0 264 -153 622z" />
<glyph unicode="L" horiz-adv-x="1002" d="M25 68q92 491 92 990q0 72 -24 218l392 -7l-144 -1013l674 -54q-49 -112 -49 -266q0 -37 4 -74q-444 207 -899 207q-23 0 -46 -1z" />
<glyph unicode="M" horiz-adv-x="1522" d="M-8 348q207 539 233 1107l275 -132q44 -526 208 -962l317 852l286 8q4 -616 218 -1190h-22q-149 0 -325 -38l-82 791q-163 -430 -250 -920l-218 -44l-271 799l-98 -377z" />
<glyph unicode="N" horiz-adv-x="1078" d="M0 -68q65 391 65 826q0 190 -12 388q71 -17 146 -17q102 0 210 31l262 -376l113 648l249 -30q-130 -401 -130 -789q0 -155 9 -312l-286 38q-71 260 -279 505l-61 -904z" />
<glyph unicode="O" horiz-adv-x="1334" d="M32 799q0 136 56 269q105 249 346 339q103 38 204 38q136 0 272 -69q235 -121 328 -382q43 -123 43 -242q0 -136 -55 -268q-106 -249 -347 -339q-103 -39 -205 -39q-136 0 -270 69q-236 122 -329 383q-43 122 -43 241zM371 826q0 -191 99 -325.5t239 -134.5 q141 0 240 134.5t99 325.5q0 190 -99 325t-240 135q-140 0 -239 -135t-99 -325z" />
<glyph unicode="P" horiz-adv-x="1070" d="M-7 8q125 458 125 1016q0 112 -5 227l556 -7h2q370 0 370 -371q0 -35 -3 -74q-15 -324 -442 -332l-226 -15l-8 -497zM366 1000l10 -329l293 42q187 40 199 214q-43 115 -172 115q-23 0 -49 -4z" />
<glyph unicode="Q" horiz-adv-x="1341" d="M32 752q0 119 43 241q93 261 329 383q134 69 270 69q102 0 205 -39q241 -90 347 -339q55 -132 55 -268q0 -119 -43 -242q-47 -131 -129 -227q91 -47 202 -66l-196 -279q-60 135 -135 231q-33 -22 -70 -41q-136 -69 -272 -69q-101 0 -204 38q-241 90 -346 339 q-56 133 -56 269zM371 725q0 -190 99 -325t239 -135q93 0 168 59q-87 73 -191 106l166 158q50 -91 118 -157q78 125 78 294q0 191 -99 325.5t-240 134.5q-140 0 -239 -134.5t-99 -325.5z" />
<glyph unicode="R" horiz-adv-x="1243" d="M-51 1508l671 22h15q311 0 370 -294q2 -21 2 -41q0 -189 -252 -279q72 -241 520 -764l-406 -15q-90 336 -301 773l-242 -17q58 -302 159 -484l-400 15q27 129 27 289q0 309 -163 795zM183 1394l96 -346l191 30q233 28 233 165q0 8 -1 16q-49 151 -197 151q-14 0 -28 -1z " />
<glyph unicode="S" horiz-adv-x="1017" d="M-60 522l376 85q-20 -91 -20 -159q0 -159 108 -203q38 -17 72 -17q103 0 165 144q19 44 19 83q0 184 -211 278q-275 121 -335 257q-23 67 -23 131q0 111 67 211q105 157 339 174q23 1 44 1q298 -37 439 -225l-233 -250q-106 252 -211 288q-25 8 -48 8q-76 0 -137 -90 q-15 -22 -15 -47q0 -182 317 -345q295 -172 295 -409q0 -31 -5 -61q-46 -272 -261 -351q-101 -38 -199 -38q-111 0 -219 48q-204 91 -324 487z" />
<glyph unicode="T" horiz-adv-x="1350" d="M-24 773l39 286q551 50 1279 301l-21 -272l-546 -65q-1 -23 -1 -45q0 -386 163 -741l-411 -107q50 166 50 340q0 230 -88 473l-10 27z" />
<glyph unicode="U" horiz-adv-x="1040" d="M27 423q0 77 20 172l65 739l332 15l-81 -859q-5 -32 -5 -61q0 -148 133 -180h12q162 0 191 211l-1 520l301 -23l-50 -513q-45 -256 -184 -343q-111 -69 -271 -69q-42 0 -88 5q-158 8 -286 136q-88 87 -88 250z" />
<glyph unicode="V" horiz-adv-x="1032" d="M-46 965l354 45l219 -641l233 972q84 -37 198 -37q49 0 104 7q-237 -697 -369 -1424l-302 -53q-83 641 -437 1131z" />
<glyph unicode="W" horiz-adv-x="1688" d="M32 1294l341 144l120 -876l349 864l308 -1014l115 996l373 15q-211 -580 -323 -1319l-354 -38q-26 412 -158 752l-255 -628l-301 36q-50 549 -215 1068z" />
<glyph unicode="X" horiz-adv-x="1161" d="M-27 1356h433l190 -385l180 249l324 -67q-217 -187 -392 -411l501 -843q-96 7 -175 7q-164 0 -247 -31q-99 334 -244 631q-110 -174 -198 -368l-316 51l393 543q-166 289 -449 624z" />
<glyph unicode="Y" horiz-adv-x="1017" d="M-90 1402q41 -2 81 -2q149 0 288 32l241 -595l158 444l294 -22l-354 -648l46 -483h-30q-197 0 -362 -61l75 536q-151 543 -437 799z" />
<glyph unicode="Z" horiz-adv-x="1032" d="M12 294l651 816l-604 -56q61 119 61 232q0 28 -4 56q332 -62 648 -62q125 0 247 10l-20 -220q-505 -353 -672 -805l634 8q-12 -67 -12 -127q0 -88 26 -161q-472 103 -751 103q-111 0 -191 -16z" />
<glyph unicode="[" horiz-adv-x="758" d="M106 1575q109 -13 213 -13q132 0 254 21l30 -166l-302 22l53 -1507l189 60v-203l-370 75q20 268 20 541q0 573 -87 1170z" />
<glyph unicode="\" horiz-adv-x="701" d="M-10 1411l208 23l564 -1529l-171 45z" />
<glyph unicode="]" horiz-adv-x="758" d="M106 -45l302 -22l-53 1507l-189 -60v203l370 -75q-20 -268 -20 -541q0 -573 87 -1170q-109 13 -213 13q-132 0 -254 -21z" />
<glyph unicode="^" d="M183 1019l270 415h118l269 -468l-148 -53l-180 382l-203 -351z" />
<glyph unicode="_" horiz-adv-x="1024" d="M0 -53l1024 20v-127l-1024 -10v117z" />
<glyph unicode="`" horiz-adv-x="950" d="M198 1220l139 200l336 -341l-69 -68z" />
<glyph unicode="a" horiz-adv-x="829" d="M10 304q0 95 96 173q124 99 474 187v2q1 8 1 15q0 112 -113 125q-10 1 -20 1q-111 0 -229 -137l-135 210q260 131 420 131q21 0 42 -2q182 -17 197 -272l4 -738q-51 36 -139 36q-62 0 -113 -14q6 43 12 83q-155 -41 -250 -41q-39 0 -68 7q-122 28 -167 165q-12 36 -12 69 zM232 312q0 -46 62 -71q24 -10 60 -10q76 0 204 44q20 176 32 300q-296 -130 -341 -209q-17 -30 -17 -54z" />
<glyph unicode="b" horiz-adv-x="897" d="M-13 1274l287 60l-4 -657q206 108 328 108q60 0 99 -25q128 -83 158 -339v-10q0 -280 -385 -354l-412 -88q26 271 26 437q0 400 -97 868zM267 168l209 40q149 89 151 208v2q0 117 -143 169q-9 1 -19 1q-79 0 -196 -51z" />
<glyph unicode="c" horiz-adv-x="844" d="M13 540q0 39 5 78q27 176 120 280t209 112q30 5 62 5q154 0 360 -118q-56 -68 -120 -256q-84 165 -242 173q-106 -17 -158 -115q-33 -60 -33 -130q0 -44 13 -92q48 -139 209 -143h13q132 0 132 132v9l234 -45q-68 -181 -154 -256q-67 -58 -195 -58q-39 0 -84 5 q-242 37 -315 185q-56 112 -56 234z" />
<glyph unicode="d" horiz-adv-x="987" d="M38 442q0 36 6 74q52 230 295 261q58 7 111 7q147 0 263 -54l45 725l269 -67q-182 -645 -182 -1301q0 -50 1 -101l-175 53l6 93q-123 -63 -237 -63q-111 0 -213 59q-189 108 -189 314zM286 455q0 -123 147 -181q49 -20 93 -20q91 0 146 9l21 319q-40 77 -188 93 q-16 2 -29 2q-139 0 -181 -157q-9 -35 -9 -65z" />
<glyph unicode="e" horiz-adv-x="904" d="M8 550q0 105 47 212q95 221 309 221q12 0 23 -1q232 -12 480 -279q-338 -70 -574 -344q108 -185 234 -194q3 -1 7 -1q118 0 130 292q150 22 250 111q4 -129 4 -224q-37 -152 -139 -257q-77 -93 -213 -93q-62 0 -138 20q-238 63 -356 290q-64 123 -64 247zM221 593 q0 -51 5 -113l334 315q-90 79 -172 79q-38 0 -74 -16q-93 -44 -93 -265z" />
<glyph unicode="f" horiz-adv-x="559" d="M16 1241q0 47 13 82q39 109 167 113h7q126 0 370 -162q-77 -65 -138 -247q-81 158 -143 158q-11 0 -21 -5q-47 -24 -47 -102q0 -36 10 -83l58 -177q70 22 149 35l93 5q0 -82 54 -156l-130 18q-69 0 -126 -23l248 -757l-256 -68q-15 367 -118 730q-39 -46 -69 -112 q-17 141 -69 212q41 32 89 58q-37 110 -82 220q-59 160 -59 261z" />
<glyph unicode="g" horiz-adv-x="899" d="M22 508q0 80 49 161q76 125 226 181q83 32 161 32q46 0 90 -11l18 116l106 -16l-6 -150q68 -47 95 -126q16 -44 16 -89q0 -78 -49 -158q-76 -126 -226 -182q-85 -32 -166 -32l-7 -88q90 46 194 46q41 0 84 -7q158 -26 253 -133q76 -86 76 -184q0 -25 -5 -50 q-23 -126 -152 -196q-94 -52 -204 -52q-40 0 -83 7q-158 26 -253 134q-76 85 -76 183q0 25 5 50q14 75 65 131l23 168q-20 5 -40 12q-136 45 -179 166q-15 43 -15 87zM180 588q0 -55 54 -135q41 -32 95 -32q17 0 35 3q77 13 131 74q55 62 56 136v1q0 72 -54 114 q-41 33 -96 33q-17 0 -34 -3q-77 -13 -131 -75q-55 -61 -55 -115zM390 -101q0 -34 15 -79q49 -76 135 -110q52 -21 106 -21q33 0 66 8q86 20 124 84q19 33 19 68q0 31 -16 64q-34 69 -100 100q-47 21 -123 21q-32 0 -69 -4q-87 -21 -131 -63q-26 -25 -26 -68z" />
<glyph unicode="h" horiz-adv-x="874" d="M-1 1282l262 24l-5 -666q86 187 269 220q28 5 58 6q127 -3 163 -205q6 -36 108 -589q-178 -2 -257 -62l-33 485q-1 16 -3 30q-14 79 -78 79q-10 0 -21 -2l-8 -2q-111 -21 -158 -176l3 -450l-238 34q21 251 21 499q0 365 -83 775z" />
<glyph unicode="i" horiz-adv-x="422" d="M38 158l53 837l278 -53q-136 -380 -150 -806zM114 1185q0 26 16 52q25 42 75 60q26 10 52 10q22 0 44 -8q45 -16 60 -57q6 -16 6 -31q0 -26 -15 -52q-25 -42 -75 -60q-26 -10 -52 -10q-22 0 -44 8q-46 16 -61 57q-6 15 -6 31z" />
<glyph unicode="j" horiz-adv-x="490" d="M-75 -98q90 38 173 196q126 -250 183 -250q5 0 10 2q32 12 32 106q0 68 -48 259.5t-253 689.5q21 -2 41 -2q141 0 253 99l174 -987q8 -57 8 -105q0 -140 -68 -196q-73 -61 -162 -61q-22 0 -46 4q-117 19 -297 245zM6 1146q0 20 10 38q19 32 61 39q9 1 18 1q33 0 64 -18 q41 -24 57 -63q6 -18 6 -34q0 -20 -10 -38q-19 -33 -60 -39q-9 -1 -18 -1q-32 0 -65 18q-41 23 -56 63q-7 17 -7 34z" />
<glyph unicode="k" horiz-adv-x="776" d="M7 1380l272 52l-39 -840l369 440q24 -142 171 -181l-499 -383l520 -364q-143 -20 -241 -134l-331 402l-18 -387l-172 -23q23 299 23 583q0 436 -55 835z" />
<glyph unicode="l" horiz-adv-x="339" d="M15 0l75 1296l234 105q-98 -669 -98 -1370z" />
<glyph unicode="m" horiz-adv-x="1311" d="M-46 979q121 16 256 91l46 -136q96 102 200 102q28 0 56 -7q135 -34 188 -253q106 158 246 200q51 15 94 15q75 0 128 -45q82 -72 94 -189q1 -16 1 -39q0 -154 -39 -793q-139 67 -286 67h-4q151 498 159 592v19q0 80 -57 124q-22 17 -50 17q-50 0 -115 -58 q-47 -42 -47 -118q0 -91 65 -230q-110 36 -214 36q-60 0 -118 -12q44 140 44 239q0 103 -48 161q-63 74 -112 74q-25 0 -46 -18q-44 -39 -44 -147q0 -51 10 -117q30 -207 136 -547q-39 5 -78 5q-119 0 -217 -21q20 138 20 185q0 359 -268 803z" />
<glyph unicode="n" horiz-adv-x="859" d="M-15 1003l249 -16l7 -135q30 135 256 150q234 0 287 -218l53 -784l-325 -106l46 792q-8 135 -98 143q-121 -23 -189 -166l31 -542l-302 22q40 241 40 496q0 127 -55 364z" />
<glyph unicode="o" horiz-adv-x="950" d="M15 651q0 63 19 125q33 110 124.5 181.5t205.5 85.5q30 4 60 4q86 0 174 -32q118 -44 200 -139.5t110 -208.5q11 -50 11 -99q0 -63 -19 -127q-35 -112 -127 -182t-203 -84q-29 -4 -58 -4q-84 0 -172 31q-119 42 -202.5 139t-110.5 210q-12 50 -12 100zM234 537 q0 -43 15 -85q23 -63 78 -99.5t119 -38.5q5 -1 11 -1q60 0 121 29q67 31 113.5 92t59.5 129q5 24 5 48q0 42 -15 83q-22 63 -76.5 100t-121.5 39q-6 1 -11 1q-61 0 -123 -30q-67 -31 -112 -91.5t-58 -128.5q-5 -24 -5 -47z" />
<glyph unicode="p" horiz-adv-x="904" d="M14 984l277 37l1 -87q10 11 21 21q108 100 229 100q24 0 48 -4q146 -24 224 -178q53 -106 53 -231q0 -57 -11 -119q-37 -194 -166 -314q-108 -101 -228 -101q-24 0 -49 4q-62 10 -112 44l42 -433q-44 13 -103 13q-85 0 -201 -28q73 353 73 662q0 297 -98 614zM261 509 q0 -73 34 -127q44 -69 122 -69q11 0 23 1q95 11 179 105t108 216q8 38 8 73q0 73 -35 127q-44 69 -123 69q-11 0 -22 -1q-95 -11 -179 -105t-107 -215q-8 -39 -8 -74z" />
<glyph unicode="q" horiz-adv-x="1024" d="M12 503q0 123 81 258q185 178 462 178q82 0 171 -15l4 71l249 -7l-135 -1334q-29 16 -65 16q-57 0 -132 -39l35 570q-114 -52 -253 -52q-123 0 -265 40q-152 146 -152 314zM287 575q0 -54 19 -118q38 -128 173 -128q87 0 214 53l22 362q-89 69 -178 69q-61 0 -123 -33 q-127 -66 -127 -205z" />
<glyph unicode="r" horiz-adv-x="573" d="M-22 937l166 44l15 -83q38 83 110 110q29 10 79 10q73 0 188 -22l-60 -226q-86 114 -147 114h-8q-64 -8 -95 -166l62 -581l-265 -60q19 165 19 337q0 229 -64 523z" />
<glyph unicode="s" horiz-adv-x="678" d="M-33 331q119 64 171 220q86 -288 248 -341q11 -3 21 -3q51 0 59 68v7q0 82 -186 261q-166 160 -166 305q0 25 5 50q33 167 159 171h6q229 0 364 -176q-90 -25 -147 -188q-73 157 -126 174q-13 4 -24 4q-34 0 -49 -38q-3 -6 -3 -12q0 -55 156 -192q173 -154 185 -312 q1 -14 1 -27q0 -140 -117 -221q-73 -51 -142 -51q-53 0 -104 30q-186 91 -311 271z" />
<glyph unicode="t" horiz-adv-x="626" d="M-37 579q36 70 36 132q0 46 -19 87q108 19 222 55l48 480q35 -22 81 -22q79 0 189 67l-97 -440q100 44 204 101l-54 -189l-185 -73l-117 -529q-10 -50 -10 -85q0 -71 41 -81q4 -1 9 -1q56 0 119 159q37 -98 143 -151q-223 -207 -320 -207q-2 0 -4 1q-98 3 -143 86 q-27 50 -27 143q0 62 12 144l78 419z" />
<glyph unicode="u" horiz-adv-x="919" d="M-76 768q36 -11 77 -11q103 0 239 70q10 -634 146 -678q32 -11 59 -11q88 0 123 110q7 23 7 59q0 185 -198 699q169 1 299 44q28 -480 305 -967q-126 -3 -268 -71l-15 101q-130 -202 -264 -213q-16 -2 -31 -2q-115 0 -205 76q-103 86 -274 794z" />
<glyph unicode="v" horiz-adv-x="821" d="M-37 987q31 -6 62 -6q124 0 239 97l105 -822l264 671q53 -106 233 -173q-316 -317 -406 -814l-265 52q-7 573 -232 995z" />
<glyph unicode="w" horiz-adv-x="1153" d="M-75 693l286 61l188 -445l181 686l204 -581l120 423l271 -23q-184 -417 -225 -791h-256l-84 475l-173 -596l-218 30q-22 378 -294 761z" />
<glyph unicode="x" horiz-adv-x="934" d="M-22 -134l370 590q-100 230 -336 504q101 -10 172 -10q90 0 133 16l132 -310l230 461q40 -19 146 -19q55 0 128 5q-255 -338 -422 -641l275 -453q-165 -8 -256 -166q-54 221 -124 416q-99 -203 -185 -484q-75 54 -263 91z" />
<glyph unicode="y" horiz-adv-x="868" d="M-90 -121l301 -8q91 30 125 113l24 107q-106 372 -419 723q198 15 294 45l192 -468l139 626q120 -60 278 -68l-376 -1123q-31 -105 -204 -166l-225 -35q0 138 -129 254z" />
<glyph unicode="z" horiz-adv-x="727" d="M-23 23l430 640l-400 -98q52 79 52 156q0 39 -14 78q29 -1 59 -1q280 0 560 69l11 -140q-236 -235 -381 -531l422 68q-45 -90 -45 -220q0 -34 3 -71q-221 74 -414 74q-127 0 -283 -24z" />
<glyph unicode="{" horiz-adv-x="799" d="M47 790q222 0 282 158l-61 460q68 165 406 202l1 -134q-29 6 -55 6q-156 0 -195 -199l83 -348q0 -83 -144 -242q152 -161 152 -244l-46 -350q64 -201 188 -201q26 0 56 9l30 -148q-61 18 -115 18q-34 0 -66 -7q-13 -3 -26 -3q-67 0 -131 78q-76 94 -77 168l-26 487 q-17 130 -145 130q-42 0 -96 -14z" />
<glyph unicode="|" horiz-adv-x="693" d="M186 1615l304 -31l-83 -1957l-153 -38z" />
<glyph unicode="}" horiz-adv-x="776" d="M47 -241l30 148q30 -9 56 -9q124 0 188 201l-46 350q0 83 152 244q-144 159 -144 242l83 348q-39 199 -195 199q-26 0 -55 -6l1 127q338 -30 406 -195l-61 -460q60 -158 282 -158l-15 -174q-54 14 -96 14q-128 0 -145 -130l-26 -487q-1 -74 -77 -168q-64 -78 -131 -78 q-13 0 -26 3q-32 7 -66 7q-54 0 -115 -18z" />
<glyph unicode="~" horiz-adv-x="1022" d="M34 578l68 214q64 73 123 84t114 11q64 0 181.5 -74.5t172.5 -74.5q52 0 108.5 28t129.5 112l46 -254q-101 -49 -164 -62t-120 -13q-60 0 -177.5 73.5t-176.5 73.5q-119 -8 -305 -118z" />
<glyph unicode="&#xa1;" horiz-adv-x="672" d="M234 -488q98 392 98 956q0 85 -2 174l270 -25q-96 -530 -96 -1086v-44zM321 873q0 62 44 106.5t107 44.5q62 0 106 -44.5t44 -106.5t-44 -106.5t-106 -44.5q-63 0 -107 44.5t-44 106.5z" />
<glyph unicode="&#xa2;" horiz-adv-x="889" d="M0 540q0 39 5 78q27 176 120 280t209 112q103 -6 176 -30l158 424l154 -37l-181 -426q59 -40 152 -105q-108 -60 -157 -195q-30 59 -70 98l-164 -404q11 -1 23 -1h13q132 0 132 132v9l234 -45q-68 -181 -154 -256q-67 -58 -195 -58q-39 0 -84 5q-27 4 -53 10l-73 -180 l-132 -33l93 250q-106 48 -150 138q-56 112 -56 234zM203 569q0 -44 13 -92q22 -64 69 -100l160 430q-24 6 -51 7q-106 -17 -158 -115q-33 -60 -33 -130z" />
<glyph unicode="&#xa3;" d="M-8 618q88 52 190 91q-20 62 -46 120q-63 139 -63 256q0 23 2 46q15 135 128.5 221.5t275.5 94.5h12q156 0 398 -241q-98 -53 -210 -234q-99 249 -211 249q-113 -1 -162 -102q-21 -42 -21 -93q0 -71 40 -159q21 -49 38 -104q133 31 285 43l-15 -143q-149 18 -241 -15 q12 -63 19 -131q3 -32 3 -64q0 -163 -82 -302q135 0 230 -49q39 -21 92 -21q74 0 257 63q-16 -127 91 -234q-134 -19 -242 -19q-160 0 -266 41q-57 22 -114 22q-121 0 -244 -97l-98 166q194 228 194 412q0 17 -2 33q-4 46 -12 90q-85 -59 -165 -144q0 114 -61 204z" />
<glyph unicode="&#xa4;" horiz-adv-x="995" d="M14 263l228 154q-77 106 -77 249q0 125 59 222q-60 93 -127 181q113 16 181 151l87 -196q61 30 132 30q112 0 197 -75l134 166v-11q0 -94 113 -208q-71 -46 -141 -102q28 -72 28 -158q0 -161 -97 -274q-29 -34 -61 -58l173 -199q-127 -31 -188 -151q-51 153 -111 297 q-23 -3 -47 -3q-94 0 -170 53q-99 -129 -199 -279q-8 128 -114 211zM263 662q0 -103 59.5 -175.5t144.5 -72.5q84 0 143.5 72.5t59.5 175.5q0 104 -59.5 176.5t-143.5 72.5q-85 0 -144.5 -72.5t-59.5 -176.5z" />
<glyph unicode="&#xa5;" horiz-adv-x="1262" d="M-121 1410q224 -19 400 22l241 -595l158 444l294 -22l-197 -371l173 -3l17 -157l-273 19l-74 -136l5 -53l270 -4l34 -147l-288 -15l25 -324h-30q-197 0 -362 -61l43 389l-296 -15l-34 185l356 -5l6 42q-23 81 -46 155l-285 13l48 155l177 -3q-112 285 -362 487z" />
<glyph unicode="&#xa6;" d="M427 -418l23 850l137 -61q-22 -201 -22 -398t22 -391h-160zM427 789q23 194 23 391t-23 398h160l-22 -879z" />
<glyph unicode="&#xa7;" d="M77 -71q161 17 265 53q2 -232 93 -273q39 -18 76 -18q51 0 100 32q72 64 72 165q0 125 -208 208q-191 132 -243.5 205t-52.5 177q0 148 89 237q67 65 170 82l-40 19q-123 64 -175.5 137t-52.5 177q0 148 89 237q82 79 216 86q8 1 17 1h3q179 -8 297 -123 q-93 -48 -116 -162q-122 172 -216 176q-132 -11 -132 -122q0 -132 210 -209q186 -127 241.5 -203.5t55.5 -187.5q0 -171 -101 -282q-47 -39 -99 -64q108 -56 154 -118q55 -77 55 -187q0 -171 -101 -283q-124 -102 -277 -105v1q-6 -1 -13 -1h-3q-66 0 -174.5 42.5 t-198.5 302.5zM335 568q0 -108 217 -219q49 14 85 47q64 57 64 145q0 4 -1 9h-2q-1 12 -3 23q-19 54 -99 112q-52 25 -110 25q-69 0 -110 -39t-41 -103z" />
<glyph unicode="&#xa8;" horiz-adv-x="1024" d="M249 1217q0 39 28.5 66.5t69.5 27.5q40 0 69 -27.5t29 -66.5t-29 -66.5t-69 -27.5q-41 0 -69.5 27.5t-28.5 66.5zM580 1219q0 28 18 52q22 32 60 39q9 2 18 2q28 0 53 -17q31 -23 38 -62q2 -9 2 -18q0 -28 -17 -52q-23 -32 -61 -39q-8 -1 -16 -1q-30 0 -55 17 q-32 22 -38 61q-2 9 -2 18z" />
<glyph unicode="&#xa9;" horiz-adv-x="1560" d="M30 718q0 148 56 283t160 238q103 104 240.5 160.5t288.5 56.5q146 0 282 -56.5t241 -160.5q102 -101 159 -238t57 -283q0 -147 -57 -282t-163 -240t-241 -159.5t-285 -54.5q-147 0 -280 55.5t-240 160.5q-106 104 -162 237.5t-56 282.5zM118 719q0 -88 24 -173 q35 -122 117 -220t195 -153t245 -62q17 -1 33 -1q116 0 224 37q123 41 226 128q105 88 168.5 203t80.5 245q5 42 5 83q0 89 -23 172q-35 122 -117 219q-80 96 -195.5 152.5t-243.5 64.5q-18 1 -37 1q-112 0 -220 -37q-126 -43 -229 -129q-105 -88 -169.5 -205.5 t-79.5 -247.5q-4 -39 -4 -77zM353 716q1 223 108 348.5t289 130.5q261 25 401 -157q-104 -51 -157 -192q-95 189 -250 189q-192 -42 -202 -294q8 -89 81 -166q48 -53 117 -53q34 0 73 12q117 43 144 166l174 -182q-106 -160 -299 -208q-31 -4 -60 -4q-135 0 -249 82 q-138 98 -170 328z" />
<glyph unicode="&#xaa;" horiz-adv-x="556" d="M9 690q0 57 63 104q82 60 313 112v2v9q0 67 -74 75h-13q-74 0 -151 -82l-90 126q172 79 278 79q13 0 27 -2q120 -10 130 -163l3 -443q-34 22 -92 22q-41 0 -74 -8q4 25 8 49q-103 -24 -165 -24q-26 0 -45 4q-81 17 -110 99q-8 22 -8 41zM10 577v117l512 20v-127zM155 695 q0 -27 41 -42q16 -6 40 -6q50 0 134 26q13 106 21 180q-195 -78 -225 -125q-11 -18 -11 -33z" />
<glyph unicode="&#xab;" horiz-adv-x="944" d="M174 479l356 303l30 -120l-235 -183l205 -266l-68 -90q-104 173 -288 356zM487 479l356 303l30 -120l-235 -183l205 -266l-68 -90q-104 173 -288 356z" />
<glyph unicode="&#xac;" d="M12 667l60 138l855 -38l68 -483l-204 -9l37 392h-816z" />
<glyph unicode="&#xad;" horiz-adv-x="670" d="M91 431l1 169l451 11l9 -224z" />
<glyph unicode="&#xae;" horiz-adv-x="1492" d="M38 710q0 148 53.5 283t153.5 238q99 104 231 160.5t277 56.5q140 0 270.5 -56.5t231.5 -160.5q98 -101 152.5 -238t54.5 -283q0 -147 -54.5 -282t-156.5 -240t-231.5 -159.5t-273.5 -54.5q-141 0 -268.5 55.5t-230.5 160.5q-102 104 -155.5 237.5t-53.5 282.5zM138 635 q0 -88 23 -173q33 -122 112 -220t187.5 -153t234.5 -62q17 -1 32 -1q111 0 215 37q118 41 217 128q101 88 161.5 203t77.5 245q5 42 5 83q0 89 -23 172q-33 122 -112 219q-77 96 -187.5 152.5t-233.5 64.5q-17 1 -36 1q-107 0 -211 -37q-121 -43 -219 -129 q-101 -88 -163 -205.5t-76 -247.5q-4 -39 -4 -77zM414 1088l409 27h9q190 0 226 -180q1 -13 1 -25q0 -115 -154 -170q44 -147 318 -467l-248 -9q-55 205 -184 472l-148 -10q36 -185 97 -296l-244 9q17 79 17 177q0 189 -99 472zM556 1032l59 -212l116 19q143 17 143 101 q0 4 -1 9q-30 93 -120 93q-9 0 -17 -1z" />
<glyph unicode="&#xaf;" horiz-adv-x="670" d="M91 1256l1 169l451 11l9 -224z" />
<glyph unicode="&#xb0;" horiz-adv-x="674" d="M60 1164q0 116 81.5 197t197.5 81q115 0 196 -81.5t81 -196.5q0 -114 -82 -196t-197 -82q-117 0 -197 81t-80 197zM164 1182q0 -24 8 -48q21 -66 87 -90q30 -11 61 -11q37 0 77 16q73 30 109 96q22 40 22 82q0 24 -8 49q-21 65 -86 91q-31 11 -63 11q-36 0 -75 -16 q-72 -29 -109 -96q-23 -42 -23 -84z" />
<glyph unicode="&#xb1;" d="M67 670l38 234l324 -75l-45 347h256l-38 -332l317 38l7 -241l-331 37l15 -384l-218 -8l29 385zM80 244l846 -51l1 -1l-52 -192l-788 34z" />
<glyph unicode="&#xb2;" horiz-adv-x="731" d="M8 461q406 241 408 421q2 17 2 31q0 88 -69 118q-12 3 -23 3q-72 0 -123 -134q-53 95 -139 134q123 168 251 170t202.5 -67t88.5 -211q0 -183 -258 -383l302 -41q-19 -65 -40 -167q-305 95 -602 126z" />
<glyph unicode="&#xb3;" horiz-adv-x="656" d="M-63 615l172 67q27 -180 140 -190q140 5 168 136v7q0 142 -236 238q102 108 158 226l-342 -96l49 150q192 16 457 68l4 -127l-131 -176q191 -71 199 -308q-37 -190 -131 -243q-73 -40 -176 -40q-33 0 -69 4q-180 33 -262 284z" />
<glyph unicode="&#xb4;" horiz-adv-x="957" d="M198 1079l336 341l139 -200l-406 -209z" />
<glyph unicode="&#xb5;" horiz-adv-x="1180" d="M-17 1157l288 41l53 -543q37 -400 257 -405q4 -1 7 -1q207 31 233 406l22 544q136 -98 281 -71l-61 -1117q-116 56 -205 -86l-23 226q-119 -160 -251 -160h-10q-138 7 -228 174l-7 -670q-154 77 -265 72q66 225 66 344q0 531 -157 1246z" />
<glyph unicode="&#xb6;" horiz-adv-x="1024" d="M9 903q0 371 259 371h2l484 -8l164 37v-39q0 -629 63 -1259l47 -7l-1 -50l-185 16l-71 1207l-133 20v-56q0 -548 105 -1097l-258 -53l-6 497l-158 15q-299 8 -310 332q-2 39 -2 74z" />
<glyph unicode="&#xb7;" horiz-adv-x="508" d="M74 629q0 53 37 91t90 38q54 0 91 -38t37 -91q0 -52 -37 -90t-91 -38q-53 0 -90 38t-37 90z" />
<glyph unicode="&#xb8;" horiz-adv-x="1024" d="M310 -219q89 -70 146.5 -87.5t84.5 -17.5q21 0 43 8q51 17 51 62t-49 64q-40 16 -102 16q-16 0 -70 -10l34 199l113 -15l-37 -104q32 4 62 5q86 0 134 -40.5t48 -113.5q0 -76 -58.5 -120.5t-160.5 -44.5q-109 0 -229 32z" />
<glyph unicode="&#xb9;" horiz-adv-x="565" d="M75 1094l107 78h186q-63 -380 -36 -795q-112 29 -222 26q72 285 72 555q0 67 -4 137l-76 -82z" />
<glyph unicode="&#xba;" horiz-adv-x="643" d="M13 887q0 37 12 75q22 66 82.5 108.5t135.5 51.5q20 2 40 2q57 0 115 -19q78 -26 132 -83.5t72 -125.5q8 -30 8 -59q0 -38 -13 -76q-23 -68 -84 -110t-134 -50q-19 -2 -38 -2q-56 0 -114 18q-78 25 -133 83.5t-73 126.5q-8 30 -8 60zM28 654v117l512 20v-127zM157 818 q0 -26 10 -51q16 -38 52 -59.5t78 -23.5h8q39 0 79 17q45 19 75.5 55.5t39.5 77.5q3 14 3 29q0 25 -10 49q-14 38 -50 60.5t-81 23.5h-7q-40 0 -81 -18q-44 -18 -74 -54.5t-38 -77.5q-4 -14 -4 -28z" />
<glyph unicode="&#xbb;" horiz-adv-x="944" d="M101 213l205 266l-205 266q23 45 52 120l304 -386q-183 -152 -311 -393zM414 213l205 266l-205 266q23 45 52 120l304 -386q-183 -152 -311 -393z" />
<glyph unicode="&#xbc;" horiz-adv-x="1424" d="M56 1107l107 78h186q-63 -380 -36 -795q-112 29 -222 26q72 285 72 555q0 67 -4 137l-76 -82zM127 8l925 1439l144 -7l-998 -1454zM413 268l389 595l92 -500l124 19l4 -145l-94 -16l49 -252l-188 -11v235l-349 -52zM611 311l167 20l-29 266z" />
<glyph unicode="&#xbd;" horiz-adv-x="1638" d="M75 1094l107 78h186q-63 -380 -36 -795q-112 29 -222 26q72 285 72 555q0 67 -4 137l-76 -82zM165 -7l925 1439l144 -7l-998 -1454zM842 -100q406 241 408 421q2 17 2 31q0 88 -69 118q-12 3 -23 3q-72 0 -123 -134q-53 95 -139 134q123 168 251 170t202.5 -67t88.5 -211 q0 -183 -258 -383l302 -41q-19 -65 -40 -167q-305 95 -602 126z" />
<glyph unicode="&#xbe;" horiz-adv-x="1454" d="M-72 623l172 67q27 -180 140 -190q140 5 168 136v7q0 142 -236 238q102 108 158 226l-342 -96l49 150q192 16 457 68l4 -127l-131 -176q191 -71 199 -308q-37 -190 -131 -243q-73 -40 -176 -40q-33 0 -69 4q-180 33 -262 284zM224 -21l925 1439l144 -7l-998 -1454z M459 268l389 595l92 -500l124 19l4 -145l-94 -16l49 -252l-188 -11v235l-349 -52zM657 311l167 20l-29 266z" />
<glyph unicode="&#xbf;" horiz-adv-x="904" d="M26 -203q0 80 35 181q83 165 256.5 199t256.5 252l25 200l248 -60l-70 -252q-105 -234 -305 -302t-210 -182q-1 -10 -1 -20q0 -95 86 -115q23 -4 46 -4q149 0 285 163q1 -249 136 -301q-269 -83 -395 -83q-115 0 -222 68q-136 75 -163 180q-8 36 -8 76zM606 873 q0 62 44 106.5t107 44.5q62 0 106 -44.5t44 -106.5t-44 -106.5t-106 -44.5q-63 0 -107 44.5t-44 106.5z" />
<glyph unicode="&#xc0;" horiz-adv-x="1447" d="M44 67l730 1442l552 -1728h-302l-90 520l-453 60l-180 -415zM564 1665l139 200l336 -341l-69 -68zM572 617l309 -68l-151 460z" />
<glyph unicode="&#xc1;" horiz-adv-x="1447" d="M75 96l730 1442l552 -1728h-302l-90 520l-453 60l-180 -415zM542 1532l336 341l139 -200l-406 -209zM603 646l309 -68l-151 460z" />
<glyph unicode="&#xc2;" horiz-adv-x="1447" d="M14 189l730 1442l552 -1728h-302l-90 520l-453 60l-180 -415zM508 1599l187 272h118l187 -317l-148 -53l-98 231l-120 -208zM542 739l309 -68l-151 460z" />
<glyph unicode="&#xc3;" horiz-adv-x="1447" d="M53 135l730 1442l552 -1728h-302l-90 520l-453 60l-180 -415zM456 1634q185 151 265 151q46 -1 113 -30q64 -28 112 -28h4q36 0 58 25t36 82l144 -56q-207 -200 -285 -200h-4q-50 0 -113 29q-66 30 -114 30q-39 0 -60.5 -25.5t-33.5 -89.5zM581 685l309 -68l-151 460z " />
<glyph unicode="&#xc4;" horiz-adv-x="1447" d="M75 211l730 1442l552 -1728h-302l-90 520l-453 60l-180 -415zM539 1670q0 39 28.5 66.5t69.5 27.5q40 0 69 -27.5t29 -66.5t-29 -66.5t-69 -27.5q-41 0 -69.5 27.5t-28.5 66.5zM603 761l309 -68l-151 460zM870 1672q0 28 18 52q22 32 60 39q9 2 18 2q28 0 53 -17 q31 -23 38 -62q2 -9 2 -18q0 -28 -17 -52q-23 -32 -61 -39q-8 -1 -16 -1q-30 0 -55 17q-32 22 -38 61q-2 9 -2 18z" />
<glyph unicode="&#xc5;" horiz-adv-x="1447" d="M75 195l659 1302q-55 11 -96 48q-59 53 -59 130q0 76 59 128.5t145 52.5q88 0 147.5 -53t59.5 -128q0 -77 -59 -130q-36 -32 -82 -45l508 -1591h-302l-90 520l-453 60l-180 -415zM603 745l309 -68l-151 460zM684 1652q0 -25 9 -49q18 -49 61 -66l51 100l31 -97q6 3 11 6 q45 26 65 82q10 27 10 53t-9 51q-19 51 -63 68q-17 6 -34 6q-28 0 -57 -17q-46 -27 -64 -80q-11 -29 -11 -57z" />
<glyph unicode="&#xc6;" horiz-adv-x="1922" d="M33 373l802 1117q449 -74 793 -21l29 -241l-550 30l10 -174l9 -90l237 23l31 -106l-256 -22l38 -361l697 17l-30 -271l-645 49l38 -394l-298 53l-11 467l-413 138l-249 -377zM648 823l267 -101q-3 189 -43 460z" />
<glyph unicode="&#xc7;" horiz-adv-x="1115" d="M-2 756q1 315 152 491.5t408 184.5q339 -1 540 -199q-120 -67 -196 -294q-134 267 -352 267q-271 -60 -286 -415q12 -125 114 -234q68 -74 166 -74q48 0 102 17q165 60 203 233l246 -256q-150 -226 -422 -294q-41 -5 -80 -5l-25 -71q32 4 62 5q86 0 134 -40.5t48 -113.5 q0 -76 -58.5 -120.5t-160.5 -44.5q-109 0 -229 32l-10 167q89 -70 146.5 -87.5t84.5 -17.5q21 0 43 8q51 17 51 62t-49 64q-40 16 -102 16q-16 0 -70 -10l27 160q-131 23 -247 106q-195 139 -240 463z" />
<glyph unicode="&#xc8;" horiz-adv-x="1100" d="M-2 1408q461 0 812 54l29 -241l-550 30l15 -264l241 23l31 -106l-257 -22l15 -362l721 18l-30 -271l-965 73q34 211 34 421q0 288 -96 647zM124 1650l139 200l336 -341l-69 -68z" />
<glyph unicode="&#xc9;" horiz-adv-x="1100" d="M-2 1408q461 0 812 54l29 -241l-550 30l15 -264l241 23l31 -106l-257 -22l15 -362l721 18l-30 -271l-965 73q34 211 34 421q0 288 -96 647zM275 1561l336 341l139 -200l-406 -209z" />
<glyph unicode="&#xca;" horiz-adv-x="1098" d="M-2 1408q461 0 812 54l29 -241l-550 30l15 -264l241 23l31 -106l-257 -22l15 -362l721 18l-30 -271l-965 73q34 211 34 421q0 288 -96 647zM195 1592l187 272h118l187 -317l-148 -53l-98 231l-120 -208z" />
<glyph unicode="&#xcb;" horiz-adv-x="1100" d="M-2 1408q461 0 812 54l29 -241l-550 30l15 -264l241 23l31 -106l-257 -22l15 -362l721 18l-30 -271l-965 73q34 211 34 421q0 288 -96 647zM181 1647q0 39 28.5 66.5t69.5 27.5q40 0 69 -27.5t29 -66.5t-29 -66.5t-69 -27.5q-41 0 -69.5 27.5t-28.5 66.5zM512 1649 q0 28 18 52q22 32 60 39q9 2 18 2q28 0 53 -17q31 -23 38 -62q2 -9 2 -18q0 -28 -17 -52q-23 -32 -61 -39q-8 -1 -16 -1q-30 0 -55 17q-32 22 -38 61q-2 9 -2 18z" />
<glyph unicode="&#xcc;" horiz-adv-x="497" d="M71 1688l139 200l336 -341l-69 -68zM75 49q56 467 56 750q0 235 -56 596q159 0 339 8q-83 -598 -83 -867q0 -250 54 -528q-151 42 -310 41z" />
<glyph unicode="&#xcd;" horiz-adv-x="495" d="M47 1516l336 341l139 -200l-406 -209zM75 49q56 467 56 750q0 235 -56 596q159 0 339 8q-83 -598 -83 -867q0 -250 54 -528q-151 42 -310 41z" />
<glyph unicode="&#xce;" horiz-adv-x="500" d="M13 1561l187 272h118l187 -317l-148 -53l-98 231l-120 -208zM75 49q56 467 56 750q0 235 -56 596q159 0 339 8q-83 -598 -83 -867q0 -250 54 -528q-151 42 -310 41z" />
<glyph unicode="&#xcf;" horiz-adv-x="497" d="M-7 1647q0 39 28.5 66.5t69.5 27.5q40 0 69 -27.5t29 -66.5t-29 -66.5t-69 -27.5q-41 0 -69.5 27.5t-28.5 66.5zM75 49q56 467 56 750q0 235 -56 596q159 0 339 8q-83 -598 -83 -867q0 -250 54 -528q-151 42 -310 41zM324 1649q0 28 18 52q22 32 60 39q9 2 18 2 q28 0 53 -17q31 -23 38 -62q2 -9 2 -18q0 -28 -17 -52q-23 -32 -61 -39q-8 -1 -16 -1q-30 0 -55 17q-32 22 -38 61q-2 9 -2 18z" />
<glyph unicode="&#xd0;" horiz-adv-x="1168" d="M-106 560v117l209 6q19 189 19 369q0 40 -23 192l640 -56q376 -56 376 -573q-113 -542 -686 -572l-437 17q64 258 97 503zM332 281h26q421 0 479 346q4 33 4 64q0 314 -419 379l-43 -379l232 6v-127l-246 -3z" />
<glyph unicode="&#xd1;" horiz-adv-x="1078" d="M-23 -68q94 562 53 1214q168 -39 356 14l262 -376l113 648l249 -30q-130 -401 -130 -789q0 -155 9 -312l-286 38q-71 260 -279 505l-61 -904zM191 1612q185 151 265 151q46 -1 113 -30q64 -28 112 -28h4q36 0 58 25t36 82l144 -56q-207 -200 -285 -200h-4q-50 0 -113 29 q-66 30 -114 30q-39 0 -60.5 -25.5t-33.5 -89.5z" />
<glyph unicode="&#xd2;" horiz-adv-x="1334" d="M32 799q0 136 56 269q105 249 346 339q103 38 204 38q136 0 272 -69q235 -121 328 -382q43 -123 43 -242q0 -136 -55 -268q-106 -249 -347 -339q-103 -39 -205 -39q-136 0 -270 69q-236 122 -329 383q-43 122 -43 241zM371 826q0 -191 99 -325.5t239 -134.5 q141 0 240 134.5t99 325.5q0 190 -99 325t-240 135q-140 0 -239 -135t-99 -325zM423 1672l139 200l336 -341l-69 -68z" />
<glyph unicode="&#xd3;" horiz-adv-x="1334" d="M32 799q0 136 56 269q105 249 346 339q103 38 204 38q136 0 272 -69q235 -121 328 -382q43 -123 43 -242q0 -136 -55 -268q-106 -249 -347 -339q-103 -39 -205 -39q-136 0 -270 69q-236 122 -329 383q-43 122 -43 241zM371 826q0 -191 99 -325.5t239 -134.5 q141 0 240 134.5t99 325.5q0 190 -99 325t-240 135q-140 0 -239 -135t-99 -325zM490 1554l336 341l139 -200l-406 -209z" />
<glyph unicode="&#xd4;" horiz-adv-x="1334" d="M32 799q0 136 56 269q105 249 346 339q103 38 204 38q136 0 272 -69q235 -121 328 -382q43 -123 43 -242q0 -136 -55 -268q-106 -249 -347 -339q-103 -39 -205 -39q-136 0 -270 69q-236 122 -329 383q-43 122 -43 241zM371 826q0 -191 99 -325.5t239 -134.5 q141 0 240 134.5t99 325.5q0 190 -99 325t-240 135q-140 0 -239 -135t-99 -325zM411 1592l187 272h118l187 -317l-148 -53l-98 231l-120 -208z" />
<glyph unicode="&#xd5;" horiz-adv-x="1334" d="M32 799q0 136 56 269q105 249 346 339q103 38 204 38q136 0 272 -69q235 -121 328 -382q43 -123 43 -242q0 -136 -55 -268q-106 -249 -347 -339q-103 -39 -205 -39q-136 0 -270 69q-236 122 -329 383q-43 122 -43 241zM291 1612q185 151 265 151q46 -1 113 -30 q64 -28 112 -28h4q36 0 58 25t36 82l144 -56q-207 -200 -285 -200h-4q-50 0 -113 29q-66 30 -114 30q-39 0 -60.5 -25.5t-33.5 -89.5zM371 826q0 -191 99 -325.5t239 -134.5q141 0 240 134.5t99 325.5q0 190 -99 325t-240 135q-140 0 -239 -135t-99 -325z" />
<glyph unicode="&#xd6;" horiz-adv-x="1334" d="M32 799q0 136 56 269q105 249 346 339q103 38 204 38q136 0 272 -69q235 -121 328 -382q43 -123 43 -242q0 -136 -55 -268q-106 -249 -347 -339q-103 -39 -205 -39q-136 0 -270 69q-236 122 -329 383q-43 122 -43 241zM371 826q0 -191 99 -325.5t239 -134.5 q141 0 240 134.5t99 325.5q0 190 -99 325t-240 135q-140 0 -239 -135t-99 -325zM397 1647q0 39 28.5 66.5t69.5 27.5q40 0 69 -27.5t29 -66.5t-29 -66.5t-69 -27.5q-41 0 -69.5 27.5t-28.5 66.5zM728 1649q0 28 18 52q22 32 60 39q9 2 18 2q28 0 53 -17q31 -23 38 -62 q2 -9 2 -18q0 -28 -17 -52q-23 -32 -61 -39q-8 -1 -16 -1q-30 0 -55 17q-32 22 -38 61q-2 9 -2 18z" />
<glyph unicode="&#xd7;" d="M93 379l270 330l-262 150l151 271l262 -276l203 262l188 -212l-239 -179l307 -187l-174 -250l-292 278l-186 -293z" />
<glyph unicode="&#xd8;" horiz-adv-x="1334" d="M32 799q0 136 56 269q105 249 346 339q103 38 204 38q115 0 230 -49l42 114l208 -23l-80 -196q135 -114 200 -297q43 -123 43 -242q0 -136 -55 -268q-106 -249 -347 -339q-103 -39 -205 -39q-60 0 -119 13l-38 -93l-171 -45l69 188q-5 3 -11 6q-236 122 -329 383 q-43 122 -43 241zM371 826q0 -191 99 -325q23 -31 47 -55l302 817q-51 23 -110 23q-140 0 -239 -135t-99 -325zM659 371q24 -5 50 -5q141 0 240 134.5t99 325.5q0 171 -80 297z" />
<glyph unicode="&#xd9;" horiz-adv-x="1040" d="M-9 423q0 77 20 172l65 739l332 15l-81 -859q-5 -32 -5 -61q0 -148 133 -180h12q162 0 191 211l-1 520l301 -23l-50 -513q-45 -256 -184 -343q-111 -69 -271 -69q-42 0 -88 5q-158 8 -286 136q-88 87 -88 250zM276 1657l139 200l336 -341l-69 -68z" />
<glyph unicode="&#xda;" horiz-adv-x="1040" d="M-9 423q0 77 20 172l65 739l332 15l-81 -859q-5 -32 -5 -61q0 -148 133 -180h12q162 0 191 211l-1 520l301 -23l-50 -513q-45 -256 -184 -343q-111 -69 -271 -69q-42 0 -88 5q-158 8 -286 136q-88 87 -88 250zM404 1516l336 341l139 -200l-406 -209z" />
<glyph unicode="&#xdb;" horiz-adv-x="1040" d="M-9 423q0 77 20 172l65 739l332 15l-81 -859q-5 -32 -5 -61q0 -148 133 -180h12q162 0 191 211l-1 520l301 -23l-50 -513q-45 -256 -184 -343q-111 -69 -271 -69q-42 0 -88 5q-158 8 -286 136q-88 87 -88 250zM211 1592l187 272h118l187 -317l-148 -53l-98 231l-120 -208 z" />
<glyph unicode="&#xdc;" horiz-adv-x="1040" d="M-9 423q0 77 20 172l65 739l332 15l-81 -859q-5 -32 -5 -61q0 -148 133 -180h12q162 0 191 211l-1 520l301 -23l-50 -513q-45 -256 -184 -343q-111 -69 -271 -69q-42 0 -88 5q-158 8 -286 136q-88 87 -88 250zM310 1632q0 39 28.5 66.5t69.5 27.5q40 0 69 -27.5t29 -66.5 t-29 -66.5t-69 -27.5q-41 0 -69.5 27.5t-28.5 66.5zM641 1634q0 28 18 52q22 32 60 39q9 2 18 2q28 0 53 -17q31 -23 38 -62q2 -9 2 -18q0 -28 -17 -52q-23 -32 -61 -39q-8 -1 -16 -1q-30 0 -55 17q-32 22 -38 61q-2 9 -2 18z" />
<glyph unicode="&#xdd;" horiz-adv-x="1017" d="M-203 1402q193 -11 369 30l241 -595l158 444l294 -22l-354 -648l46 -483h-30q-197 0 -362 -61l75 536q-151 543 -437 799zM233 1507l336 341l139 -200l-406 -209z" />
<glyph unicode="&#xde;" horiz-adv-x="1070" d="M17 -193q99 547 121 841q11 150 11 319q0 162 -62 474q245 -23 325 -5q-31 -233 -37 -327l310 3h2q370 0 370 -371q0 -35 -3 -74q-15 -324 -442 -332l-226 -15l1 -544q-108 63 -370 31zM382 868l10 -329l293 42q187 40 199 214q-43 115 -172 115q-23 0 -49 -4z" />
<glyph unicode="&#xdf;" horiz-adv-x="1251" d="M-34 -367q98 588 98 882q0 260 -25 425q-14 91 -14 166q0 225 125 310q108 74 207 74q54 0 105 -21q136 -61 187 -164q24 -47 24 -108q0 -77 -37 -177q-18 -49 -18 -89q0 -87 93 -130q159 -71 257 -251q40 -124 40 -268q0 -83 -34 -149q-76 -148 -225 -197 q-64 -20 -133 -20l-196 6q15 207 -46 390q135 -165 226 -165q26 0 48 10q100 44 100 172v16q-7 145 -93.5 232t-196.5 157q-79 48 -79 133q0 53 33 120q48 101 48 169q0 32 -10 54q-33 69 -94 81q-11 0 -61 -21q-38 -16 -38 -275q0 -53 2 -115q12 -381 82 -1315 q-249 114 -375 68z" />
<glyph unicode="&#xe0;" horiz-adv-x="829" d="M10 304q0 95 96 173q124 99 474 187v2q1 8 1 15q0 112 -113 125q-10 1 -20 1q-111 0 -229 -137l-135 210q260 131 420 131q21 0 42 -2q182 -17 197 -272l4 -738q-51 36 -139 36q-62 0 -113 -14q6 43 12 83q-155 -41 -250 -41q-39 0 -68 7q-122 28 -167 165q-12 36 -12 69 zM179 1258l139 200l336 -341l-69 -68zM232 312q0 -46 62 -71q24 -10 60 -10q76 0 204 44q20 176 32 300q-296 -130 -341 -209q-17 -30 -17 -54z" />
<glyph unicode="&#xe1;" horiz-adv-x="829" d="M10 304q0 95 96 173q124 99 474 187v2q1 8 1 15q0 112 -113 125q-10 1 -20 1q-111 0 -229 -137l-135 210q260 131 420 131q21 0 42 -2q182 -17 197 -272l4 -738q-51 36 -139 36q-62 0 -113 -14q6 43 12 83q-155 -41 -250 -41q-39 0 -68 7q-122 28 -167 165q-12 36 -12 69 zM216 1117l336 341l139 -200l-406 -209zM232 312q0 -46 62 -71q24 -10 60 -10q76 0 204 44q20 176 32 300q-296 -130 -341 -209q-17 -30 -17 -54z" />
<glyph unicode="&#xe2;" horiz-adv-x="829" d="M10 304q0 95 96 173q124 99 474 187v2q1 8 1 15q0 112 -113 125q-10 1 -20 1q-111 0 -229 -137l-135 210q260 131 420 131q21 0 42 -2q182 -17 197 -272l4 -738q-51 36 -139 36q-62 0 -113 -14q6 43 12 83q-155 -41 -250 -41q-39 0 -68 7q-122 28 -167 165q-12 36 -12 69 zM166 1162l187 272h118l187 -317l-148 -53l-98 231l-120 -208zM232 312q0 -46 62 -71q24 -10 60 -10q76 0 204 44q20 176 32 300q-296 -130 -341 -209q-17 -30 -17 -54z" />
<glyph unicode="&#xe3;" horiz-adv-x="829" d="M10 304q0 95 96 173q124 99 474 187v2q1 8 1 15q0 112 -113 125q-10 1 -20 1q-111 0 -229 -137l-135 210q260 131 420 131q21 0 42 -2q182 -17 197 -272l4 -738q-51 36 -139 36q-62 0 -113 -14q6 43 12 83q-155 -41 -250 -41q-39 0 -68 7q-122 28 -167 165q-12 36 -12 69 zM61 1220q185 151 265 151q46 -1 113 -30q64 -28 112 -28h4q36 0 58 25t36 82l144 -56q-207 -200 -285 -200h-4q-50 0 -113 29q-66 30 -114 30q-39 0 -60.5 -25.5t-33.5 -89.5zM232 312q0 -46 62 -71q24 -10 60 -10q76 0 204 44q20 176 32 300q-296 -130 -341 -209 q-17 -30 -17 -54z" />
<glyph unicode="&#xe4;" horiz-adv-x="829" d="M10 304q0 95 96 173q124 99 474 187v2q1 8 1 15q0 112 -113 125q-10 1 -20 1q-111 0 -229 -137l-135 210q260 131 420 131q21 0 42 -2q182 -17 197 -272l4 -738q-51 36 -139 36q-62 0 -113 -14q6 43 12 83q-155 -41 -250 -41q-39 0 -68 7q-122 28 -167 165q-12 36 -12 69 zM152 1217q0 39 28.5 66.5t69.5 27.5q40 0 69 -27.5t29 -66.5t-29 -66.5t-69 -27.5q-41 0 -69.5 27.5t-28.5 66.5zM232 312q0 -46 62 -71q24 -10 60 -10q76 0 204 44q20 176 32 300q-296 -130 -341 -209q-17 -30 -17 -54zM483 1219q0 28 18 52q22 32 60 39q9 2 18 2 q28 0 53 -17q31 -23 38 -62q2 -9 2 -18q0 -28 -17 -52q-23 -32 -61 -39q-8 -1 -16 -1q-30 0 -55 17q-32 22 -38 61q-2 9 -2 18z" />
<glyph unicode="&#xe5;" horiz-adv-x="829" d="M10 304q0 95 96 173q124 99 474 187v2q1 8 1 15q0 112 -113 125q-10 1 -20 1q-111 0 -229 -137l-135 210q260 131 420 131q21 0 42 -2q182 -17 197 -272l4 -738q-51 36 -139 36q-62 0 -113 -14q6 43 12 83q-155 -41 -250 -41q-39 0 -68 7q-122 28 -167 165q-12 36 -12 69 zM207 1253q0 76 59 128.5t145 52.5q88 0 147.5 -53t59.5 -128q0 -77 -59.5 -130t-147.5 -53q-86 0 -145 53t-59 130zM232 312q0 -46 62 -71q24 -10 60 -10q76 0 204 44q20 176 32 300q-296 -130 -341 -209q-17 -30 -17 -54zM312 1230q0 -25 9 -49q18 -50 63 -67q18 -7 36 -7 q28 0 55 17q45 26 65 82q10 27 10 53t-9 51q-19 51 -63 68q-17 6 -34 6q-28 0 -57 -17q-46 -27 -64 -80q-11 -29 -11 -57z" />
<glyph unicode="&#xe6;" horiz-adv-x="1379" d="M10 304q0 95 96 173q124 99 474 187v2q1 8 1 15q0 112 -113 125q-10 1 -20 1q-111 0 -229 -137l-97 195q222 146 382 146q21 0 42 -2q103 -10 153 -96q18 17 39 32q111 83 219 83q80 0 159 -46q10 -6 19 -13q195 -126 277 -481q-156 51 -315 51q-175 0 -354 -62 q1 -214 105 -285q2 -2 6 -4q20 -11 41 -11q91 0 217 198q87 -34 250 -41q-71 -150 -134.5 -218.5t-200.5 -118.5q-54 -20 -110 -20q-54 0 -109 19q-112 39 -200 39q-62 0 -113 -14q6 43 12 83q-155 -41 -250 -41q-39 0 -68 7q-122 28 -167 165q-12 36 -12 69zM232 312 q0 -46 62 -71q24 -10 60 -10q76 0 204 44q20 176 32 300q-296 -130 -341 -209q-17 -30 -17 -54zM745 615l447 106q-39 113 -110 154q-33 19 -72 24h-8q-98 0 -205 -183q-25 -45 -52 -101z" />
<glyph unicode="&#xe7;" horiz-adv-x="844" d="M13 540q0 39 5 78q27 176 120 280t209 112q211 15 444 -106q-78 -75 -142 -263q-84 165 -242 173q-106 -17 -158 -115q-33 -60 -33 -130q0 -44 13 -92q48 -139 209 -143h13q132 0 132 132v9l234 -45q-68 -181 -154 -256q-67 -58 -195 -58q-25 0 -53 2l-28 -79q32 4 62 5 q86 0 134 -40.5t48 -113.5q0 -76 -58.5 -120.5t-160.5 -44.5q-109 0 -229 32l-10 167q89 -70 146.5 -87.5t84.5 -17.5q21 0 43 8q51 17 51 62t-49 64q-40 16 -102 16q-16 0 -70 -10l30 178q-177 46 -238 169q-56 112 -56 234z" />
<glyph unicode="&#xe8;" horiz-adv-x="904" d="M8 550q0 105 47 212q95 221 309 221q12 0 23 -1q232 -12 480 -279q-338 -70 -574 -344q108 -185 234 -194q3 -1 7 -1q118 0 130 292q150 22 250 111q4 -129 4 -224q-37 -152 -139 -257q-77 -93 -213 -93q-62 0 -138 20q-238 63 -356 290q-64 123 -64 247zM89 1258 l139 200l336 -341l-69 -68zM221 593q0 -51 5 -113l334 315q-90 79 -172 79q-38 0 -74 -16q-93 -44 -93 -265z" />
<glyph unicode="&#xe9;" horiz-adv-x="904" d="M8 550q0 105 47 212q95 221 309 221q12 0 23 -1q232 -12 480 -279q-338 -70 -574 -344q108 -185 234 -194q3 -1 7 -1q118 0 130 292q150 22 250 111q4 -129 4 -224q-37 -152 -139 -257q-77 -93 -213 -93q-62 0 -138 20q-238 63 -356 290q-64 123 -64 247zM156 1086 l336 341l139 -200l-406 -209zM221 593q0 -51 5 -113l334 315q-90 79 -172 79q-38 0 -74 -16q-93 -44 -93 -265z" />
<glyph unicode="&#xea;" horiz-adv-x="904" d="M8 550q0 105 47 212q95 221 309 221q12 0 23 -1q232 -12 480 -279q-338 -70 -574 -344q108 -185 234 -194q3 -1 7 -1q118 0 130 292q150 22 250 111q4 -129 4 -224q-37 -152 -139 -257q-77 -93 -213 -93q-62 0 -138 20q-238 63 -356 290q-64 123 -64 247zM122 1147 l187 272h118l187 -317l-148 -53l-98 231l-120 -208zM221 593q0 -51 5 -113l334 315q-90 79 -172 79q-38 0 -74 -16q-93 -44 -93 -265z" />
<glyph unicode="&#xeb;" horiz-adv-x="904" d="M8 550q0 105 47 212q95 221 309 221q12 0 23 -1q232 -12 480 -279q-338 -70 -574 -344q108 -185 234 -194q3 -1 7 -1q118 0 130 292q150 22 250 111q4 -129 4 -224q-37 -152 -139 -257q-77 -93 -213 -93q-62 0 -138 20q-238 63 -356 290q-64 123 -64 247zM116 1209 q0 39 28.5 66.5t69.5 27.5q40 0 69 -27.5t29 -66.5t-29 -66.5t-69 -27.5q-41 0 -69.5 27.5t-28.5 66.5zM221 593q0 -51 5 -113l334 315q-90 79 -172 79q-38 0 -74 -16q-93 -44 -93 -265zM447 1211q0 28 18 52q22 32 60 39q9 2 18 2q28 0 53 -17q31 -23 38 -62q2 -9 2 -18 q0 -28 -17 -52q-23 -32 -61 -39q-8 -1 -16 -1q-30 0 -55 17q-32 22 -38 61q-2 9 -2 18z" />
<glyph unicode="&#xec;" horiz-adv-x="399" d="M-4 1212l139 200l336 -341l-69 -68zM38 158l53 829l278 -45q-136 -380 -150 -806z" />
<glyph unicode="&#xed;" horiz-adv-x="399" d="M0 1079l336 341l139 -200l-406 -209zM12 158l53 829l278 -45q-136 -380 -150 -806z" />
<glyph unicode="&#xee;" horiz-adv-x="399" d="M-15 1170l187 272h118l187 -317l-148 -53l-98 231l-120 -208zM39 158l53 829l278 -45q-136 -380 -150 -806z" />
<glyph unicode="&#xef;" horiz-adv-x="399" d="M-75 1217q0 39 28.5 66.5t69.5 27.5q40 0 69 -27.5t29 -66.5t-29 -66.5t-69 -27.5q-41 0 -69.5 27.5t-28.5 66.5zM39 158l53 829l278 -45q-136 -380 -150 -806zM256 1219q0 28 18 52q22 32 60 39q9 2 18 2q28 0 53 -17q31 -23 38 -62q2 -9 2 -18q0 -28 -17 -52 q-23 -32 -61 -39q-8 -1 -16 -1q-30 0 -55 17q-32 22 -38 61q-2 9 -2 18z" />
<glyph unicode="&#xf0;" horiz-adv-x="1139" d="M107 1341l128 185q121 -58 292 -206l166 157l204 -3l-278 -237q18 -16 35 -33q255 -244 327 -650q9 -52 9 -103q0 -77 -21 -154q-35 -127 -124.5 -210t-200.5 -102q-33 -6 -65 -6q-78 0 -157 34q-113 47 -189 154.5t-99 237.5q-9 50 -9 100q0 78 23 157q36 128 126 210 t196 101q31 5 63 5q77 0 157 -33q32 -12 61 -31q-90 157 -205 260l-271 -232l-94 53l269 253q-147 95 -295 95q-24 0 -48 -2zM345 625q0 -50 8 -93q6 -32 15 -60q29 -92 85.5 -168.5t126.5 -109.5q48 -23 92 -23q14 0 28 2q5 1 11 3q61 15 102.5 74.5t46.5 150.5q1 17 1 34 q0 42 -7 84q-6 32 -16 65q-29 92 -86.5 169t-127.5 109q-48 22 -90 22q-15 0 -29 -3l-10 -2q-59 -14 -101.5 -73t-47.5 -150q-1 -16 -1 -31z" />
<glyph unicode="&#xf1;" horiz-adv-x="859" d="M-153 1182q185 151 265 151q46 -1 113 -30q64 -28 112 -28h4q36 0 58 25t36 82l144 -56q-207 -200 -285 -200h-4q-50 0 -113 29q-66 30 -114 30q-39 0 -60.5 -25.5t-33.5 -89.5zM-144 1003l249 -16l7 -135q30 135 256 150q234 0 287 -218l53 -784l-325 -106l46 792 q-8 135 -98 143q-121 -23 -189 -166l31 -542l-302 22q40 241 40 496q0 127 -55 364z" />
<glyph unicode="&#xf2;" horiz-adv-x="950" d="M15 651q0 63 19 125q33 110 124.5 181.5t205.5 85.5q30 4 60 4q86 0 174 -32q118 -44 200 -139.5t110 -208.5q11 -50 11 -99q0 -63 -19 -127q-35 -112 -127 -182t-203 -84q-29 -4 -58 -4q-84 0 -172 31q-119 42 -202.5 139t-110.5 210q-12 50 -12 100zM234 537 q0 -43 15 -85q23 -63 78 -99.5t119 -38.5q5 -1 11 -1q60 0 121 29q67 31 113.5 92t59.5 129q5 24 5 48q0 42 -15 83q-22 63 -76.5 100t-121.5 39q-6 1 -11 1q-61 0 -123 -30q-67 -31 -112 -91.5t-58 -128.5q-5 -24 -5 -47zM278 1303l139 200l336 -341l-69 -68z" />
<glyph unicode="&#xf3;" horiz-adv-x="950" d="M15 651q0 63 19 125q33 110 124.5 181.5t205.5 85.5q30 4 60 4q86 0 174 -32q118 -44 200 -139.5t110 -208.5q11 -50 11 -99q0 -63 -19 -127q-35 -112 -127 -182t-203 -84q-29 -4 -58 -4q-84 0 -172 31q-119 42 -202.5 139t-110.5 210q-12 50 -12 100zM234 537 q0 -43 15 -85q23 -63 78 -99.5t119 -38.5q5 -1 11 -1q60 0 121 29q67 31 113.5 92t59.5 129q5 24 5 48q0 42 -15 83q-22 63 -76.5 100t-121.5 39q-6 1 -11 1q-61 0 -123 -30q-67 -31 -112 -91.5t-58 -128.5q-5 -24 -5 -47zM278 1199l336 341l139 -200l-406 -209z" />
<glyph unicode="&#xf4;" horiz-adv-x="950" d="M15 651q0 63 19 125q33 110 124.5 181.5t205.5 85.5q30 4 60 4q86 0 174 -32q118 -44 200 -139.5t110 -208.5q11 -50 11 -99q0 -63 -19 -127q-35 -112 -127 -182t-203 -84q-29 -4 -58 -4q-84 0 -172 31q-119 42 -202.5 139t-110.5 210q-12 50 -12 100zM221 1200l187 272 h118l187 -317l-148 -53l-98 231l-120 -208zM234 537q0 -43 15 -85q23 -63 78 -99.5t119 -38.5q5 -1 11 -1q60 0 121 29q67 31 113.5 92t59.5 129q5 24 5 48q0 42 -15 83q-22 63 -76.5 100t-121.5 39q-6 1 -11 1q-61 0 -123 -30q-67 -31 -112 -91.5t-58 -128.5q-5 -24 -5 -47 z" />
<glyph unicode="&#xf5;" horiz-adv-x="950" d="M15 651q0 63 19 125q33 110 124.5 181.5t205.5 85.5q30 4 60 4q86 0 174 -32q118 -44 200 -139.5t110 -208.5q11 -50 11 -99q0 -63 -19 -127q-35 -112 -127 -182t-203 -84q-29 -4 -58 -4q-84 0 -172 31q-119 42 -202.5 139t-110.5 210q-12 50 -12 100zM108 1227 q185 151 265 151q46 -1 113 -30q64 -28 112 -28h4q36 0 58 25t36 82l144 -56q-207 -200 -285 -200h-4q-50 0 -113 29q-66 30 -114 30q-39 0 -60.5 -25.5t-33.5 -89.5zM234 537q0 -43 15 -85q23 -63 78 -99.5t119 -38.5q5 -1 11 -1q60 0 121 29q67 31 113.5 92t59.5 129 q5 24 5 48q0 42 -15 83q-22 63 -76.5 100t-121.5 39q-6 1 -11 1q-61 0 -123 -30q-67 -31 -112 -91.5t-58 -128.5q-5 -24 -5 -47z" />
<glyph unicode="&#xf6;" horiz-adv-x="950" d="M15 651q0 63 19 125q33 110 124.5 181.5t205.5 85.5q30 4 60 4q86 0 174 -32q118 -44 200 -139.5t110 -208.5q11 -50 11 -99q0 -63 -19 -127q-35 -112 -127 -182t-203 -84q-29 -4 -58 -4q-84 0 -172 31q-119 42 -202.5 139t-110.5 210q-12 50 -12 100zM207 1217 q0 39 28.5 66.5t69.5 27.5q40 0 69 -27.5t29 -66.5t-29 -66.5t-69 -27.5q-41 0 -69.5 27.5t-28.5 66.5zM234 537q0 -43 15 -85q23 -63 78 -99.5t119 -38.5q5 -1 11 -1q60 0 121 29q67 31 113.5 92t59.5 129q5 24 5 48q0 42 -15 83q-22 63 -76.5 100t-121.5 39q-6 1 -11 1 q-61 0 -123 -30q-67 -31 -112 -91.5t-58 -128.5q-5 -24 -5 -47zM538 1219q0 28 18 52q22 32 60 39q9 2 18 2q28 0 53 -17q31 -23 38 -62q2 -9 2 -18q0 -28 -17 -52q-23 -32 -61 -39q-8 -1 -16 -1q-30 0 -55 17q-32 22 -38 61q-2 9 -2 18z" />
<glyph unicode="&#xf7;" d="M80 832l846 -51l1 -1l-52 -192l-788 34zM353 319q0 62 44 106.5t106 44.5q63 0 107 -44.5t44 -106.5t-44 -106.5t-107 -44.5q-62 0 -106 44.5t-44 106.5zM353 1102q0 62 44 106.5t106 44.5q63 0 107 -44.5t44 -106.5t-44 -106.5t-107 -44.5q-62 0 -106 44.5t-44 106.5z " />
<glyph unicode="&#xf8;" horiz-adv-x="950" d="M15 651q0 63 19 125q33 110 124.5 181.5t205.5 85.5q30 4 60 4q72 0 146 -22l89 242l179 -20l-122 -296q45 -32 82 -75q82 -96 110 -209q11 -50 11 -99q0 -63 -19 -127q-35 -112 -127 -182t-203 -84q-29 -4 -58 -4q-55 0 -112 13l-80 -195l-147 -39l103 280 q-78 41 -138 111q-84 97 -111 210q-12 50 -12 100zM234 537q0 -43 15 -85q22 -60 74 -97l175 477q-44 -6 -89 -28q-67 -31 -112 -91.5t-58 -128.5q-5 -24 -5 -47zM453 313h4q60 0 121 29q67 31 113.5 92t59.5 129q5 24 5 48q0 42 -15 83q-22 63 -76 100q-6 3 -11 7z" />
<glyph unicode="&#xf9;" horiz-adv-x="919" d="M-114 768q127 -39 316 59q10 -634 146 -678q32 -11 59 -11q88 0 123 110q7 23 7 59q0 185 -198 699q169 1 299 44q28 -480 305 -967q-126 -3 -268 -71l-15 101q-130 -202 -264 -213q-16 -2 -31 -2q-115 0 -205 76q-103 86 -274 794zM-107 1212l139 200l336 -341l-69 -68z " />
<glyph unicode="&#xfa;" horiz-adv-x="919" d="M-114 768q127 -39 316 59q10 -634 146 -678q32 -11 59 -11q88 0 123 110q7 23 7 59q0 185 -198 699q169 1 299 44q28 -480 305 -967q-126 -3 -268 -71l-15 101q-130 -202 -264 -213q-16 -2 -31 -2q-115 0 -205 76q-103 86 -274 794zM66 1049l336 341l139 -200l-406 -209z " />
<glyph unicode="&#xfb;" horiz-adv-x="919" d="M-114 768q127 -39 316 59q10 -634 146 -678q32 -11 59 -11q88 0 123 110q7 23 7 59q0 185 -198 699q169 1 299 44q28 -480 305 -967q-126 -3 -268 -71l-15 101q-130 -202 -264 -213q-16 -2 -31 -2q-115 0 -205 76q-103 86 -274 794zM1 1139l187 272h118l187 -317 l-148 -53l-98 231l-120 -208z" />
<glyph unicode="&#xfc;" horiz-adv-x="919" d="M-114 768q127 -39 316 59q10 -634 146 -678q32 -11 59 -11q88 0 123 110q7 23 7 59q0 185 -198 699q169 1 299 44q28 -480 305 -967q-126 -3 -268 -71l-15 101q-130 -202 -264 -213q-16 -2 -31 -2q-115 0 -205 76q-103 86 -274 794zM-35 1195q0 39 28.5 66.5t69.5 27.5 q40 0 69 -27.5t29 -66.5t-29 -66.5t-69 -27.5q-41 0 -69.5 27.5t-28.5 66.5zM296 1197q0 28 18 52q22 32 60 39q9 2 18 2q28 0 53 -17q31 -23 38 -62q2 -9 2 -18q0 -28 -17 -52q-23 -32 -61 -39q-8 -1 -16 -1q-30 0 -55 17q-32 22 -38 61q-2 9 -2 18z" />
<glyph unicode="&#xfd;" horiz-adv-x="868" d="M-90 -121l301 -8q91 30 125 113l24 107q-106 372 -419 723q198 15 294 45l192 -468l139 626q120 -60 278 -68l-376 -1123q-31 -105 -204 -166l-225 -35q0 138 -129 254zM245 1079l336 341l139 -200l-406 -209z" />
<glyph unicode="&#xfe;" horiz-adv-x="904" d="M2 -435q48 232 67 861l29 976l257 37q-43 -295 -67 -587q102 90 217 90q24 0 48 -4q146 -24 224 -178q53 -106 53 -231q0 -57 -11 -119q-37 -194 -166 -314q-108 -101 -228 -101q-24 0 -49 4q-62 10 -112 44l42 -455q-108 25 -304 -23zM258 269q44 -69 122 -69q11 0 23 1 q95 11 179 105t108 216q8 38 8 73q0 73 -35 127q-44 69 -123 69q-11 0 -22 -1q-95 -11 -179 -105q-43 -48 -70 -103q-8 -157 -11 -313z" />
<glyph unicode="&#xff;" horiz-adv-x="868" d="M-90 -121l301 -8q91 30 125 113l24 107q-106 372 -419 723q198 15 294 45l192 -468l139 626q120 -60 278 -68l-376 -1123q-31 -105 -204 -166l-225 -35q0 138 -129 254zM144 1217q0 39 28.5 66.5t69.5 27.5q40 0 69 -27.5t29 -66.5t-29 -66.5t-69 -27.5q-41 0 -69.5 27.5 t-28.5 66.5zM475 1219q0 28 18 52q22 32 60 39q9 2 18 2q28 0 53 -17q31 -23 38 -62q2 -9 2 -18q0 -28 -17 -52q-23 -32 -61 -39q-8 -1 -16 -1q-30 0 -55 17q-32 22 -38 61q-2 9 -2 18z" />
<glyph unicode="&#x152;" horiz-adv-x="1940" d="M32 799q0 136 56 269q105 249 346 339q103 38 204 38q125 0 251 -59h77q461 0 812 54l29 -241l-550 30l15 -264l241 23l31 -106l-257 -22l15 -362l721 18l-30 -271l-873 66q-96 -112 -241 -166q-103 -39 -205 -39q-136 0 -270 69q-236 122 -329 383q-43 122 -43 241z M371 826q0 -191 99 -325.5t239 -134.5q141 0 240 134.5t99 325.5q0 190 -99 325t-240 135q-140 0 -239 -135t-99 -325z" />
<glyph unicode="&#x153;" horiz-adv-x="1626" d="M15 651q0 63 19 125q33 110 124.5 181.5t205.5 85.5q30 4 60 4q86 0 174 -32q118 -44 200 -139q13 -15 24 -31q95 138 264 138q12 0 23 -1q232 -12 480 -279q-338 -70 -574 -344q108 -185 234 -194q3 -1 7 -1q118 0 130 292q150 22 235 80q5 -300 -120 -450 q-77 -93 -213 -93q-62 0 -138 20q-228 60 -346 272q-15 -14 -31 -26q-92 -70 -203 -84q-29 -4 -58 -4q-84 0 -172 31q-119 42 -202.5 139t-110.5 210q-12 50 -12 100zM234 537q0 -43 15 -85q23 -63 78 -99.5t119 -38.5q5 -1 11 -1q60 0 121 29q67 31 114 92q25 33 40 69 q-2 23 -2 47q0 63 17 126l-6 18q-22 63 -76.5 100t-121.5 39q-6 1 -11 1q-61 0 -123 -30q-67 -31 -112 -91.5t-58 -128.5q-5 -24 -5 -47zM943 593q0 -51 5 -113l334 315q-90 79 -172 79q-38 0 -74 -16q-93 -44 -93 -265z" />
<glyph unicode="&#x2c6;" horiz-adv-x="1024" d="M266 1162l187 272h118l187 -317l-148 -53l-98 231l-120 -208z" />
<glyph unicode="&#x2dc;" horiz-adv-x="1024" d="M166 1182q185 151 265 151q46 -1 113 -30q64 -28 112 -28h4q36 0 58 25t36 82l144 -56q-207 -200 -285 -200h-4q-50 0 -113 29q-66 30 -114 30q-39 0 -60.5 -25.5t-33.5 -89.5z" />
<glyph unicode="&#x2000;" horiz-adv-x="951" />
<glyph unicode="&#x2001;" horiz-adv-x="1902" />
<glyph unicode="&#x2002;" horiz-adv-x="951" />
<glyph unicode="&#x2003;" horiz-adv-x="1902" />
<glyph unicode="&#x2004;" horiz-adv-x="634" />
<glyph unicode="&#x2005;" horiz-adv-x="475" />
<glyph unicode="&#x2006;" horiz-adv-x="317" />
<glyph unicode="&#x2007;" horiz-adv-x="317" />
<glyph unicode="&#x2008;" horiz-adv-x="237" />
<glyph unicode="&#x2009;" horiz-adv-x="380" />
<glyph unicode="&#x200a;" horiz-adv-x="105" />
<glyph unicode="&#x2010;" horiz-adv-x="670" d="M91 431l1 169l451 11l9 -224z" />
<glyph unicode="&#x2011;" horiz-adv-x="670" d="M91 431l1 169l451 11l9 -224z" />
<glyph unicode="&#x2012;" horiz-adv-x="670" d="M91 431l1 169l451 11l9 -224z" />
<glyph unicode="&#x2013;" horiz-adv-x="1108" d="M56 419v120h996v-120h-996z" />
<glyph unicode="&#x2014;" horiz-adv-x="2048" d="M0 419v120h2048v-120h-2048z" />
<glyph unicode="&#x2018;" horiz-adv-x="557" d="M121 1160q0 15 1 32q4 113 170 315q-28 -117 -28 -187q0 -45 12 -70q11 -24 33 -29q81 -16 107 -72q15 -31 15 -63q0 -26 -9 -52q-22 -59 -78 -85q-31 -15 -63 -15q-26 0 -52 10q-59 22 -85 78q-23 48 -23 138z" />
<glyph unicode="&#x2019;" horiz-adv-x="557" d="M121 1355q0 26 9 52q22 59 78 85q31 15 63 15q26 0 52 -10q59 -22 85 -78q23 -48 23 -138q0 -15 -1 -32q-4 -113 -170 -315q28 117 28 187q0 45 -12 70q-11 24 -33 29q-81 16 -107 72q-15 31 -15 63z" />
<glyph unicode="&#x201a;" horiz-adv-x="557" d="M121 36q0 26 9 52q22 59 78 85q31 15 63 15q26 0 52 -10q59 -22 85 -78q23 -48 23 -138q0 -15 -1 -32q-4 -113 -170 -315q28 117 28 187q0 45 -12 70q-11 24 -33 29q-81 16 -107 72q-15 31 -15 63z" />
<glyph unicode="&#x201c;" horiz-adv-x="991" d="M151 1175q0 15 1 32q4 113 170 315q-28 -117 -28 -187q0 -45 12 -70q11 -24 33 -29q81 -16 107 -72q15 -31 15 -63q0 -26 -9 -52q-22 -59 -78 -85q-31 -15 -63 -15q-26 0 -52 10q-59 22 -85 78q-23 48 -23 138zM540 1047q0 15 1 32q4 113 170 315q-28 -117 -28 -187 q0 -45 12 -70q11 -24 33 -29q81 -16 107 -72q15 -31 15 -63q0 -26 -9 -52q-22 -59 -78 -85q-31 -15 -63 -15q-26 0 -52 10q-59 22 -85 78q-23 48 -23 138z" />
<glyph unicode="&#x201d;" horiz-adv-x="991" d="M182 1197q0 26 9 52q22 59 78 85q31 15 63 15q26 0 52 -10q59 -22 85 -78q23 -48 23 -138q0 -15 -1 -32q-4 -113 -170 -315q28 117 28 187q0 45 -12 70q-11 24 -33 29q-81 16 -107 72q-15 31 -15 63zM540 1370q0 26 9 52q22 59 78 85q31 15 63 15q26 0 52 -10 q59 -22 85 -78q23 -48 23 -138q0 -15 -1 -32q-4 -113 -170 -315q28 117 28 187q0 45 -12 70q-11 24 -33 29q-81 16 -107 72q-15 31 -15 63z" />
<glyph unicode="&#x201e;" horiz-adv-x="991" d="M182 48q0 26 9 52q22 59 78 85q31 15 63 15q26 0 52 -10q59 -22 85 -78q23 -48 23 -138q0 -15 -1 -32q-4 -113 -170 -315q28 117 28 187q0 45 -12 70q-11 24 -33 29q-81 16 -107 72q-15 31 -15 63zM540 221q0 26 9 52q22 59 78 85q31 15 63 15q26 0 52 -10q59 -22 85 -78 q23 -48 23 -138q0 -15 -1 -32q-4 -113 -170 -315q28 117 28 187q0 45 -12 70q-11 24 -33 29q-81 16 -107 72q-15 31 -15 63z" />
<glyph unicode="&#x2022;" horiz-adv-x="1024" d="M216 718q0 123 87 209t210 86q122 0 208.5 -86.5t86.5 -208.5t-87.5 -209.5t-209.5 -87.5q-123 0 -209 87t-86 210z" />
<glyph unicode="&#x2026;" horiz-adv-x="2048" d="M76 90q0 62 44 106.5t106 44.5q63 0 107 -44.5t44 -106.5t-44 -106.5t-107 -44.5q-62 0 -106 44.5t-44 106.5zM759 90q0 62 44 106.5t106 44.5q63 0 107 -44.5t44 -106.5t-44 -106.5t-107 -44.5q-62 0 -106 44.5t-44 106.5zM1442 90q0 62 44 106.5t106 44.5 q63 0 107 -44.5t44 -106.5t-44 -106.5t-107 -44.5q-62 0 -106 44.5t-44 106.5z" />
<glyph unicode="&#x202f;" horiz-adv-x="380" />
<glyph unicode="&#x2039;" horiz-adv-x="631" d="M174 479l356 303l30 -120l-235 -183l205 -266l-68 -90q-104 173 -288 356z" />
<glyph unicode="&#x203a;" horiz-adv-x="631" d="M101 213l205 266l-205 266q23 45 52 120l304 -386q-183 -152 -311 -393z" />
<glyph unicode="&#x205f;" horiz-adv-x="475" />
<glyph unicode="&#x20ac;" horiz-adv-x="1138" d="M-163 511l70 107l196 9q-3 19 -5 39q0 45 3 87l-223 -6l43 134h195q31 166 112 277q128 176 346 184q333 -8 461 -191q-105 -128 -168 -302q-114 267 -299 267q-164 -43 -218 -235h334v-114l-356 -9q-3 -27 -4 -57q3 -32 11 -63l333 15l-51 -111l-240 -10q19 -33 44 -65 q58 -74 141 -74q41 0 87 17q140 60 173 233l209 -256q-128 -226 -359 -294q-36 -5 -71 -5q-163 0 -299 115q-126 106 -178 319z" />
<glyph unicode="&#x2122;" horiz-adv-x="1228" d="M-10 687l18 115q248 20 575 120l-9 -109l-246 -26v-18q0 -154 73 -296l-185 -43q23 66 23 136q0 92 -40 189l-4 11zM254 491q94 216 105 443l124 -53q20 -210 94 -385l142 341l129 3q2 -246 98 -476q-71 2 -156 -15l-37 317q-73 -172 -112 -368l-99 -18l-122 320 l-44 -151z" />
<glyph unicode="&#xe000;" horiz-adv-x="1115" d="M0 0v1115h1115v-1115h-1115z" />
</font>
</defs>
</svg>
